ML
     
  Уважаемый Гость!
Вы можете поддержать проект и зарегистрироваться у наших партнеров - онлайн-стратегия MyLands. При регистрации в игре Вы получите код, который сможете активировать после регистрации на pirat.ca и получить 1000 дублонов.

Ваш код:
fcd618d94adc1456bccbde5047c9cd0930e4ae4d
 
     

Секретные территории. Куда исчезают цивилизации / (РЕН ТВ) [2013 г., Документальный, DVB]

Ответить на тему
 
Автор
Сообщение

Пост 11-Ноя-2013 20:38

[Q] 

mersicc

Корсар

-Секретные территории. Куда исчезают цивилизации-- Производство: Россия
Жанр: Документальный
Год выпуска: 2013 г.
Продолжительность: 00:47:38
Мировая премьера: 25.10.2013
Перевод: Не требуется
Режиссер: РЕН ТВ-Описание: Последние исследования ученых, изучивших множество артефактов, доказывают, что человечество значительно старше, чем это принято считать. Имеются доказательства, что на Земле сотни-десятки миллионов лет назад существовали Антлантида, Гиперборея, Лемурия, мифическая страна Эльдорадо и другие древние цивилизации. Древние предания описывают их так подробно, будто они существовали на самом деле. Как они исчезли? Где искать их следы: на земле, под водой или в другом измерении?-Качество видео: DVB
Контейнер: MPEG
Видео кодек: MPEG2
Аудио кодек: MPEG
Видео: MPEG2 Video 720x576 (4:3) 25fps 3 872 Kbps 0.373 Bits/Pixel
Аудио: MPEG Audio 48000Hz stereo 192kbps 2 ch
Cубтитры: отсутствуют
General
Complete name : D:\Секретные территории. Куда исчезают цивилизации.mpg
Format : MPEG-PS
File size : 1.38 GiB
Duration : 47mn 38s
Overall bit rate mode : Variable
Overall bit rate : 4 146 Kbps
Writing library : encoded by TMPGEnc MPEG Editor 2.0 Version. 2.2.8.177
Video
ID : 224 (0xE0)
Format : MPEG Video
Format version : Version 2
Format profile : [email protected]
Format settings, BVOP : No
Format settings, Matrix : Custom
Format settings, GOP : Variable
Duration : 47mn 38s
Bit rate mode : Variable
Bit rate : 3 872 Kbps
Maximum bit rate : 4 000 Kbps
Width : 720 pixels
Height : 576 pixels
Display aspect ratio : 4:3
Frame rate : 25.000 fps
Standard : PAL
Color space : YUV
Chroma subsampling : 4:2:0
Bit depth : 8 bits
Scan type : Interlaced
Scan order : Top Field First
Compression mode : Lossy
Bits/(Pixel*Frame) : 0.373
Time code of first frame : 00:00:00:00
Time code source : Group of pictures header
Stream size : 1.29 GiB (93%)
Writing library : TMPGEnc MPEG Editor 2.2.8.177
Matrix coefficients : BT.601
Audio
ID : 192 (0xC0)
Format : MPEG Audio
Format version : Version 1
Format profile : Layer 2
Mode : Joint stereo
Mode extension : Intensity Stereo + MS Stereo
Duration : 47mn 38s
Bit rate mode : Constant
Bit rate : 192 Kbps
Channel count : 2 channels
Sampling rate : 48.0 KHz
Compression mode : Lossy
Stream size : 65.4 MiB (5%)
Download / Скачать

Хотите скачать бесплатно? Зарегистрируйтесь на сайте (ссылка на регистрацию). Pirat.ca - самый быстрый торрент трекер в рунете!

Как скачивать  ·   Что такое торрент  ·   Рейтинг и ограничения



Последний раз редактировалось: mersicc (2013-11-12 00:20), всего редактировалось 4 раз(а)

Ghostts

Морской Волк

Пост 29-Янв-2014 23:26 (спустя 2 месяца 18 дней)

[Q] 

Любопытный материал обзорного плана.
Мне понравилось
[Профиль]  [ЛС] 

Ghostts

Морской Волк

Пост 07-Мар-2014 21:07 (спустя 1 месяц 8 дней)

[Q] 

ОК!
Стою на раздаче. aa ci
[Профиль]  [ЛС] 
Показать сообщения:    
Ответить на тему

Текущее время: Сегодня 12:52

Часовой пояс: GMT + 4



Вы не можете начинать темы
Вы не можете отвечать на сообщения
Вы не можете редактировать свои сообщения
Вы не можете удалять свои сообщения
Вы не можете голосовать в опросах
Вы не можете прикреплять файлы к сообщениям
Вы не можете скачивать файлы

▼ Вниз