ML
     
  Уважаемый Гость!
Вы можете поддержать проект и зарегистрироваться у наших партнеров - онлайн-стратегия MyLands. При регистрации в игре Вы получите код, который сможете активировать после регистрации на pirat.ca и получить 1000 дублонов.

Ваш код:
2932e5898d0a27592397f70b82a5834d1e70ea19
 
     

Великие тайны. Боги подводных глубин / (Игорь Прокопенко) [2013 г., Документальный, SATRip]

Ответить на тему
 
Автор
Сообщение

Пост 03-Фев-2014 03:35

[Q] 

mersicc

Корсар

-Великие тайны. Боги подводных глубин-- Производство: Рен-ТВ
Жанр: Документальный
Год выпуска: 2013 г.
Продолжительность: 00:47:44
Перевод: Не требуется
Оригинальный аудиопоток: русский
Режиссер: Игорь Прокопенко-Описание: Документальный цикл «Великие тайны» основан на научных открытиях, рассекреченных или малоизвестных документах, свидетельствах очевидцев важнейших событий – фактах, которые заставляют нас пересмотреть общепринятую картину мира. Мы приподнимаем завесу над великими тайнами современности и одновременно задаемся новыми вопросами.
В этом выпуске:
Территория Земли на две трети покрыта водой, но и сегодня мы почти ничего не знаем об этом загадочном мире. Кто населяет подводные просторы нашей планеты? Кто пугает подводных исследователей фантастическими чудовищами?-Качество видео: SATRip
Контейнер: AVI
Видео кодек: XviD
Аудио кодек: MP3
Видео: 704x400 (1.76:1), 25 fps, XviD MPEG-4 ~1670 kbps avg, 0.24 bit/pixel
Аудио: 48 kHz, MPEG Layer 3, 2 ch, ~128.00 kbps avg
Cубтитры: отсутствуют
General
Complete name : D:\Великие тайны с Игорем Прокопенко. Боги подводных глубин (2013.03.09).avi
Format : AVI
Format/Info : Audio Video Interleave
File size : 617 MiB
Duration : 47mn 43s
Overall bit rate : 1 808 Kbps
Writing application : VirtualDubMod 1.5.10.2 (build 2542/release)
Writing library : VirtualDubMod build 2542/release
Video
ID : 0
Format : MPEG-4 Visual
Format profile : Advanced [email protected]
Format settings, BVOP : Yes
Format settings, QPel : No
Format settings, GMC : No warppoints
Format settings, Matrix : Default (H.263)
Codec ID : XVID
Codec ID/Hint : XviD
Duration : 47mn 43s
Bit rate : 1 670 Kbps
Width : 704 pixels
Height : 400 pixels
Display aspect ratio : 16:9
Frame rate : 25.000 fps
Color space : YUV
Chroma subsampling : 4:2:0
Bit depth : 8 bits
Scan type : Progressive
Compression mode : Lossy
Bits/(Pixel*Frame) : 0.237
Stream size : 570 MiB (92%)
Writing library : XviD 64
Audio
ID : 1
Format : MPEG Audio
Format version : Version 1
Format profile : Layer 3
Mode : Joint stereo
Mode extension : MS Stereo
Codec ID : 55
Codec ID/Hint : MP3
Duration : 47mn 43s
Bit rate mode : Constant
Bit rate : 128 Kbps
Channel count : 2 channels
Sampling rate : 48.0 KHz
Compression mode : Lossy
Stream size : 43.7 MiB (7%)
Alignment : Aligned on interleaves
Interleave, duration : 40 ms (1.00 video frame)
Interleave, preload duration : 504 ms
Download / Скачать

Хотите скачать бесплатно? Зарегистрируйтесь на сайте (ссылка на регистрацию). Pirat.ca - самый быстрый торрент трекер в рунете!

Как скачивать  ·   Что такое торрент  ·   Рейтинг и ограничения

mersicc ®

Корсар

1614

Пост 03-Фев-2014 18:41 (спустя 15 часов)

[Q] 

Выкладывать ещё.

_________________
[Профиль]  [ЛС] 

UcrusPazzo

7670

Пост 03-Фев-2014 22:04 (спустя 3 часа)

[Q] 

mersicc, давай... а можеш бааальшой пак (Прокопенко) выложить? Будет круто, я бы даже поддержал раздачу.

_________________
[Профиль]  [ЛС] 

mersicc ®

Корсар

1614

Пост 03-Фев-2014 23:27 (спустя 1 час 23 минуты)

[Q] 

UcrusPazzo, Я выложил исходник .. да у меня он есть давай попробуем..Но на аждую.. серию Инфу давать не буду.. там их 60 с чемто.. или 50..Там уже пошол 2 сезон.. я выложу помаги с оформлением..

_________________
[Профиль]  [ЛС] 

UcrusPazzo

7670

Пост 03-Фев-2014 23:32 (спустя 4 минуты)

[Q] 

ок, хотябы названия серий...

_________________
[Профиль]  [ЛС] 

maikl611

Флибустьер

Пост 22-Май-2015 23:02 (спустя 1 год 3 месяца)

[Q] 

Выкладывай поддержу раздачу !!!
Спасибо!!!
[Профиль]  [ЛС] 
Показать сообщения:    
Ответить на тему

Текущее время: Сегодня 08:02

Часовой пояс: GMT + 4



Вы не можете начинать темы
Вы не можете отвечать на сообщения
Вы не можете редактировать свои сообщения
Вы не можете удалять свои сообщения
Вы не можете голосовать в опросах
Вы не можете прикреплять файлы к сообщениям
Вы не можете скачивать файлы

▼ Вниз