ML
     
  Уважаемый Гость!
Вы можете поддержать проект и зарегистрироваться у наших партнеров - онлайн-стратегия MyLands. При регистрации в игре Вы получите код, который сможете активировать после регистрации на pirat.ca и получить 1000 дублонов.

Ваш код:
e93cd9e43017f251127f220889864c05934e61c6
 
     

Территория заблуждений с Игорем Прокопенко. НЛО (Федор Калугин) [2013 г., Документальный, DVB] [эфир 26.11.2013]

Ответить на тему
 
Автор
Сообщение

Пост 03-Фев-2014 14:13

[Q] 

mersicc

Корсар

-Территория заблуждений с Игорем Прокопенко. НЛО -- Производство: Россия
Жанр: Документальный
Год выпуска: 2013 г.
Продолжительность: 01:29:57
Перевод: Не требуется
Оригинальный аудиопоток: русский
Режиссер: Федор Калугин-Описание: Вот уже много лет физики, астрономы, антропологи и археологи спорят о том, от кого произошел человек, как зародилась Вселенная, почему Солнечная система устроена вовсе не так, как все остальные, и кто сделал наш мир таким. Еженедельная программа «Территория заблуждений» вместе с известными учеными всего мира отправится в увлекательное путешествие на разные континенты Земли, чтобы найти ответы на все эти трудные, но интересующие очень многих людей вопросы...-Качество видео: DVB
Контейнер: MPEG-2
Видео кодек: MPEG2
Аудио кодек: MPEG
Видео: MPEG2 Video 720x576 (4:3) 25fps 4000kbps
Аудио: MPEG Audio 48000Hz stereo 192kbps
Cубтитры: отсутствуют
General
Complete name : D:\Территория заблуждений-2013-11-26.mpg
Format : MPEG-PS
File size : 2.62 GiB
Duration : 1h 29mn
Overall bit rate mode : Variable
Overall bit rate : 4 174 Kbps
Writing library : encoded by TMPGEnc MPEG Editor 2.0 Version. 2.2.8.177
Video
ID : 224 (0xE0)
Format : MPEG Video
Format version : Version 2
Format profile : [email protected]
Format settings, BVOP : No
Format settings, Matrix : Custom
Format settings, GOP : Variable
Duration : 1h 29mn
Bit rate mode : Variable
Bit rate : 3 899 Kbps
Maximum bit rate : 4 000 Kbps
Width : 720 pixels
Height : 576 pixels
Display aspect ratio : 4:3
Frame rate : 25.000 fps
Standard : PAL
Color space : YUV
Chroma subsampling : 4:2:0
Bit depth : 8 bits
Scan type : Interlaced
Scan order : Top Field First
Compression mode : Lossy
Bits/(Pixel*Frame) : 0.376
Time code of first frame : 00:00:00:00
Time code source : Group of pictures header
Stream size : 2.45 GiB (93%)
Writing library : TMPGEnc MPEG Editor 2.2.8.177
Matrix coefficients : BT.601
Audio
ID : 192 (0xC0)
Format : MPEG Audio
Format version : Version 1
Format profile : Layer 2
Mode : Joint stereo
Mode extension : Intensity Stereo + MS Stereo
Duration : 1h 29mn
Bit rate mode : Constant
Bit rate : 192 Kbps
Channel count : 2 channels
Sampling rate : 48.0 KHz
Compression mode : Lossy
Stream size : 124 MiB (5%)
Download / Скачать

Хотите скачать бесплатно? Зарегистрируйтесь на сайте (ссылка на регистрацию). Pirat.ca - самый быстрый торрент трекер в рунете!

Как скачивать  ·   Что такое торрент  ·   Рейтинг и ограничения

mersicc ®

Корсар

1614

Пост 03-Фев-2014 18:19 (спустя 4 часа)

[Q] 

Я сидирую..только показывает што меня нет..

_________________
[Профиль]  [ЛС] 
Показать сообщения:    
Ответить на тему

Текущее время: Сегодня 04:28

Часовой пояс: GMT + 4



Вы не можете начинать темы
Вы не можете отвечать на сообщения
Вы не можете редактировать свои сообщения
Вы не можете удалять свои сообщения
Вы не можете голосовать в опросах
Вы не можете прикреплять файлы к сообщениям
Вы не можете скачивать файлы

▼ Вниз