ML
     
  Уважаемый Гость!
Вы можете поддержать проект и зарегистрироваться у наших партнеров - онлайн-стратегия MyLands. При регистрации в игре Вы получите код, который сможете активировать после регистрации на pirat.ca и получить 1000 дублонов.

Ваш код:
6f9ab67d502902cc72a06c406977ddb589b7f39d
 
     

Территория заблуждений с Игорем Прокопенко. Всё о пирамидах (эфир 30.04.13) (Федор Калугин) [2013, Документальный, DVB]

Ответить на тему
 
Автор
Сообщение

Пост 03-Фев-2014 14:29

[Q] 

mersicc

Корсар

Территория заблуждений с Игорем Прокопенко. Всё о пирамидах (эфир 30.04.13)-
Год выпуска: 2013
Страна: Россия
Жанр: Документальный
Продолжительность: 01:32:07
Перевод: Не требуется
Русские субтитры: нет-Режиссер: Федор Калугин-Описание: Вот уже много лет физики, астрономы, антропологи и археологи спорят о том, от кого произошел человек, как зародилась Вселенная, почему Солнечная система устроена вовсе не так, как все остальные, и кто сделал наш мир таким. Еженедельная программа «Территория заблуждений» вместе с известными учеными всего мира отправится в увлекательное путешествие на разные континенты Земли, чтобы найти ответы на все эти трудные, но интересующие очень многих людей вопросы...-Доп. информация: В этой передаче Мы рассмотрим Все пирамиды что известны человечеству-качество: DVB
формат: MPEG
видеокодек: MPEG2
аудиокодек: MPEG
Видео: MPEG2 Video 768x576 (704x576) (4:3) 25fps 4000kbps
Аудио: MPEG Audio 48000Hz mono 192kbps
-Очень интересный выпуск.-
General
Complete name : C:\Documents and Settings\Mersicc\Мои документы\Мои видеозаписи\Территория заблуждений с Игорем Прокопенко.Всё о пирамидах.mpg
Format : MPEG-PS
File size : 2.56 GiB
Duration : 1h 32mn
Overall bit rate mode : Variable
Overall bit rate : 3 980 Kbps
Video
ID : 224 (0xE0)
Format : MPEG Video
Format version : Version 2
Format profile : [email protected]
Format settings, BVOP : Yes
Format settings, Matrix : Custom
Format settings, GOP : M=3, N=12
Duration : 1h 32mn
Bit rate mode : Variable
Bit rate : 3 708 Kbps
Maximum bit rate : 4 000 Kbps
Width : 704 pixels
Height : 576 pixels
Display aspect ratio : 4:3
Frame rate : 25.000 fps
Standard : PAL
Color space : YUV
Chroma subsampling : 4:2:0
Bit depth : 8 bits
Scan type : Interlaced
Scan order : Top Field First
Compression mode : Lossy
Bits/(Pixel*Frame) : 0.366
Stream size : 2.39 GiB (93%)
Matrix coefficients : BT.601
Audio
ID : 192 (0xC0)
Format : MPEG Audio
Format version : Version 1
Format profile : Layer 2
Duration : 1h 32mn
Bit rate mode : Constant
Bit rate : 192 Kbps
Channel(s) : 1 channel
Sampling rate : 48.0 KHz
Compression mode : Lossy
Stream size : 127 MiB (5%)
Download / Скачать

Хотите скачать бесплатно? Зарегистрируйтесь на сайте (ссылка на регистрацию). Pirat.ca - самый быстрый торрент трекер в рунете!

Как скачивать  ·   Что такое торрент  ·   Рейтинг и ограничения



Последний раз редактировалось: mersicc (2014-02-03 18:33), всего редактировалось 2 раз(а)
Показать сообщения:    
Ответить на тему

Текущее время: Сегодня 16:32

Часовой пояс: GMT + 4



Вы не можете начинать темы
Вы не можете отвечать на сообщения
Вы не можете редактировать свои сообщения
Вы не можете удалять свои сообщения
Вы не можете голосовать в опросах
Вы не можете прикреплять файлы к сообщениям
Вы не можете скачивать файлы

▼ Вниз