ML
     
  Уважаемый Гость!
Вы можете поддержать проект и зарегистрироваться у наших партнеров - онлайн-стратегия MyLands. При регистрации в игре Вы получите код, который сможете активировать после регистрации на pirat.ca и получить 1000 дублонов.

Ваш код:
9cfe162481db953a6549f32179d7b3900b8b8643
 
     

"Битва цивилизаций" с Игорем Прокопенко / Серии: 1-4 из 4 [Эфир от 07.02.2014] (Вадим Артеменко) [2014 г., Документальный, SATRip]

Ответить на тему
 
Автор
Сообщение

Пост 09-Фев-2014 08:57

[Q] 

mersicc

Корсар

-"Битва цивилизаций" с Игорем Прокопенкосписок серийСледы богов , Секретный план богов , Оружие богов , Наследники богов-- Производство: Россия
Жанр: Документальный
Год выпуска: 2014 г.
Продолжительность: 4 x ~ 00:49:00
Перевод: Не требуется
Оригинальный аудиопоток: русский
Режиссер: Вадим Артеменко-Описание: На Земле множество загадочных древних сооружений, созданных с применением технологий, к которым только сейчас приблизились самые передовые державы... Более того, их строили в определенных местах, с учетом распределения энергопотоков… Кто это делал и почему?-Качество видео: SATRip
Контейнер: AVI
Видео кодек: XviD
Аудио кодек: MP3
Видео: 720x400 (1.80:1), 25 fps, XviD MPEG-4 ~1795 kbps avg, 0.25 bit/pixel
Аудио: 48 kHz, MPEG Layer 3, 2 ch, ~128.00 kbps avg
Cубтитры: отсутствуют
1."Битва цивилизаций" с Игорем Прокопенко - Наследники богов
2."Битва цивилизаций" с Игорем Прокопенко - Оружие богов
3."Битва цивилизаций" с Игорем Прокопенко. Секретный план богов
4."Битва цивилизаций" с Игорем Прокопенко - Следы богов
General
Complete name : D:\Битва цивилизаций
Format : AVI
Format/Info : Audio Video Interleave
File size : 666 MiB
Duration : 48mn 11s
Overall bit rate : 1 933 Kbps
Writing application : VirtualDubMod 1.5.10.2 (build 2540/release)
Writing library : VirtualDub build 32507/release
Video
ID : 0
Format : MPEG-4 Visual
Format profile : Advanced [email protected]
Format settings, BVOP : 1
Format settings, QPel : No
Format settings, GMC : No warppoints
Format settings, Matrix : Default (MPEG)
Codec ID : XVID
Codec ID/Hint : XviD
Duration : 48mn 11s
Bit rate : 1 795 Kbps
Width : 720 pixels
Height : 400 pixels
Display aspect ratio : 16:9
Frame rate : 25.000 fps
Color space : YUV
Chroma subsampling : 4:2:0
Bit depth : 8 bits
Scan type : Progressive
Compression mode : Lossy
Bits/(Pixel*Frame) : 0.249
Stream size : 619 MiB (93%)
Writing library : XviD 64
Audio
ID : 1
Format : MPEG Audio
Format version : Version 1
Format profile : Layer 3
Mode : Joint stereo
Codec ID : 55
Codec ID/Hint : MP3
Duration : 48mn 11s
Bit rate mode : Constant
Bit rate : 128 Kbps
Channel count : 2 channels
Sampling rate : 48.0 KHz
Compression mode : Lossy
Stream size : 44.1 MiB (7%)
Alignment : Aligned on interleaves
Interleave, duration : 40 ms (1.00 video frame)
Interleave, preload duration : 504 ms
Download / Скачать

Хотите скачать бесплатно? Зарегистрируйтесь на сайте (ссылка на регистрацию). Pirat.ca - самый быстрый торрент трекер в рунете!

Как скачивать  ·   Что такое торрент  ·   Рейтинг и ограничения



Последний раз редактировалось: mersicc (2014-02-09 11:54), всего редактировалось 1 раз

mersicc ®

Корсар

1614

Пост 10-Фев-2014 20:08 (спустя 1 день 11 часов)

[Q] 

Всем Спасибо.

_________________
[Профиль]  [ЛС] 

serg_bmw

Гроза морей

650

Пост 11-Фев-2014 20:56 (спустя 1 день)

[Q] 

Спасибо!!!

_________________
[Профиль]  [ЛС] 
Показать сообщения:    
Ответить на тему

Текущее время: Сегодня 06:06

Часовой пояс: GMT + 4



Вы не можете начинать темы
Вы не можете отвечать на сообщения
Вы не можете редактировать свои сообщения
Вы не можете удалять свои сообщения
Вы не можете голосовать в опросах
Вы не можете прикреплять файлы к сообщениям
Вы не можете скачивать файлы

▼ Вниз