ML
     
  Уважаемый Гость!
Вы можете поддержать проект и зарегистрироваться у наших партнеров - онлайн-стратегия MyLands. При регистрации в игре Вы получите код, который сможете активировать после регистрации на pirat.ca и получить 1000 дублонов.

Ваш код:
6f9ab67d502902cc72a06c406977ddb589b7f39d
 
     

Великие тайны с Игорем Прокопенко: Великие Тайны Океана / (Рен-ТВ) [2014 г., Документальный, SATRip]

Ответить на тему
 
Автор
Сообщение

Пост 11-Фев-2014 06:44

[Q] 

mersicc

Корсар

-Великие тайны с Игорем Прокопенко: Великие Тайны Океана-- Производство: Россия
Жанр: Документальный
Год выпуска: 2014 г.
Продолжительность: 02:23:53
Перевод: Не требуется
Оригинальный аудиопоток: русский
Режиссер: Рен-ТВ-Описание: Говорят, ученые располагают информацией о наличии в океане высокоразвитой цивилизации. Экспедиция "РЕН ТВ", похоже, добыла убедительные доказательства существования русалок и реликтовых подводных монстров...-Качество видео: SATRip
Контейнер: AVI
Видео кодек: DivX
Аудио кодек: MP3
Видео: 720x400 (1.80:1), 25 fps, DivX Codec 5.x or 6.x ~1497 kbps avg, 0.21 bit/pixel
Аудио: 48 kHz, MPEG Layer 3, 2 ch, ~128.00 kbps avg
Cубтитры: отсутствуют
General
Complete name : D:\Velikie.tajny.23.01.2014.SATRip.avi
Format : AVI
Format/Info : Audio Video Interleave
File size : 1.64 GiB
Duration : 2h 23mn
Overall bit rate : 1 636 Kbps
Writing application : VirtualDubModRus 1.5.10.2 (build 2540/release)
Writing library : VirtualDubMod build 2540/release
Video
ID : 0
Format : MPEG-4 Visual
Format settings, BVOP : 1
Format settings, QPel : No
Format settings, GMC : No warppoints
Format settings, Matrix : Default (H.263)
Muxing mode : Packed bitstream
Codec ID : DX50
Codec ID/Hint : DivX 5
Duration : 2h 23mn
Bit rate : 1 498 Kbps
Width : 720 pixels
Height : 400 pixels
Display aspect ratio : 16:9
Frame rate : 25.000 fps
Color space : YUV
Chroma subsampling : 4:2:0
Bit depth : 8 bits
Scan type : Progressive
Compression mode : Lossy
Bits/(Pixel*Frame) : 0.208
Stream size : 1.51 GiB (92%)
Writing library : DivX 3013
Audio
ID : 1
Format : MPEG Audio
Format version : Version 1
Format profile : Layer 3
Codec ID : 55
Codec ID/Hint : MP3
Duration : 2h 23mn
Bit rate mode : Constant
Bit rate : 128 Kbps
Channel count : 2 channels
Sampling rate : 48.0 KHz
Compression mode : Lossy
Stream size : 132 MiB (8%)
Alignment : Split accross interleaves
Interleave, duration : 40 ms (1.00 video frame)
Interleave, preload duration : 500 ms
Download / Скачать

Хотите скачать бесплатно? Зарегистрируйтесь на сайте (ссылка на регистрацию). Pirat.ca - самый быстрый торрент трекер в рунете!

Как скачивать  ·   Что такое торрент  ·   Рейтинг и ограничения

Michaell43

Корсар

378

Пост 11-Фев-2014 07:34 (спустя 50 минут)

[Q] 

Эх, как хочется встретиться с представительницами других цивилизаций! ca dj
[Профиль]  [ЛС] 

vovan200976

Флибустьер

Пост 11-Фев-2014 09:56 (спустя 2 часа 21 минута)

[Q] 

491544Эх, как хочется встретиться с представительницами других цивилизаций! ca dj
Да гульнули-бы с Братьями по разуму!! :
[Профиль]  [ЛС] 

serg_bmw

Гроза морей

650

Пост 11-Фев-2014 18:19 (спустя 8 часов)

[Q] 

Спасибо!!!

_________________
[Профиль]  [ЛС] 

deemas86

Штурман

Пост 12-Фев-2014 09:31 (спустя 15 часов)

[Q] 

люблю эту бредятину смотреть. прикалывает меня их вранье)))
[Профиль]  [ЛС] 
Показать сообщения:    
Ответить на тему

Текущее время: Сегодня 16:29

Часовой пояс: GMT + 4



Вы не можете начинать темы
Вы не можете отвечать на сообщения
Вы не можете редактировать свои сообщения
Вы не можете удалять свои сообщения
Вы не можете голосовать в опросах
Вы не можете прикреплять файлы к сообщениям
Вы не можете скачивать файлы

▼ Вниз