ML
     
  Уважаемый Гость!
Вы можете поддержать проект и зарегистрироваться у наших партнеров - онлайн-стратегия MyLands. При регистрации в игре Вы получите код, который сможете активировать после регистрации на pirat.ca и получить 1000 дублонов.

Ваш код:
ba41f7961e0b4717aed6a401d955262223b8f6c4
 
     

Секретные территории. Космические хищники / (Эфир от 24.01.2014) (РенТВ) [2014 г., документальный, SATRip]

Ответить на тему
 
Автор
Сообщение

Пост 11-Фев-2014 16:33

[Q] 

mersicc

Корсар

-Секретные территории. Космические хищники-- Производство: Россия
Жанр: документальный
Год выпуска: 2014 г.
Продолжительность: 00:45:00
Перевод: Не требуется
Оригинальный аудиопоток: русский
Режиссер: РенТВ-Описание: Что делает Землю лакомым кусочком для представителей иных миров? Обилие воды, богатый животный мир, полезные ископаемые... А человечество? Всего лишь досадная помеха на пути к богатствам... Сможем ли мы противостоять угрозе хищников из Вселенной или в ближайшем будущем землян ждет полное истребление?-Качество видео: SATRip
Контейнер: AVI
Видео кодек: DivX
Аудио кодек: MP3
Видео: 720x400 (1.80:1), 25 fps, DivX Codec 5.x or 6.x ~1499 kbps avg, 0.21 bit/pixel
Аудио: 48 kHz, MPEG Layer 3, 2 ch, ~128.00 kbps avg
Cубтитры: отсутствуют
General
Complete name : D:\Sekretnye.territorii.2014.01.24.SATRip.avi
Format : AVI
Format/Info : Audio Video Interleave
File size : 556 MiB
Duration : 47mn 27s
Overall bit rate : 1 638 Kbps
Writing application : VirtualDubModRus 1.5.10.2 (build 2540/release)
Writing library : VirtualDubMod build 2540/release
Video
ID : 0
Format : MPEG-4 Visual
Format settings, BVOP : 1
Format settings, QPel : No
Format settings, GMC : No warppoints
Format settings, Matrix : Default (H.263)
Muxing mode : Packed bitstream
Codec ID : DX50
Codec ID/Hint : DivX 5
Duration : 47mn 27s
Bit rate : 1 500 Kbps
Width : 720 pixels
Height : 400 pixels
Display aspect ratio : 16:9
Frame rate : 25.000 fps
Color space : YUV
Chroma subsampling : 4:2:0
Bit depth : 8 bits
Scan type : Progressive
Compression mode : Lossy
Bits/(Pixel*Frame) : 0.208
Stream size : 509 MiB (92%)
Writing library : DivX 3013
Audio
ID : 1
Format : MPEG Audio
Format version : Version 1
Format profile : Layer 3
Codec ID : 55
Codec ID/Hint : MP3
Duration : 47mn 27s
Bit rate mode : Constant
Bit rate : 128 Kbps
Channel count : 2 channels
Sampling rate : 48.0 KHz
Compression mode : Lossy
Stream size : 43.5 MiB (8%)
Alignment : Split accross interleaves
Interleave, duration : 40 ms (1.00 video frame)
Interleave, preload duration : 500 ms
Download / Скачать

Хотите скачать бесплатно? Зарегистрируйтесь на сайте (ссылка на регистрацию). Pirat.ca - самый быстрый торрент трекер в рунете!

Как скачивать  ·   Что такое торрент  ·   Рейтинг и ограничения

vovan200976

Флибустьер

Пост 11-Фев-2014 16:46 (спустя 13 минут)

[Q] 

Спасибо сейчас заценю!!!
[Профиль]  [ЛС] 

kmv01

Гроза морей

Пост 11-Фев-2014 16:54 (спустя 8 минут)

[Q] 

Смотрел недавно по РЕН-тв, фильм понравился! Спасибо!!!
[Профиль]  [ЛС] 

serg_bmw

Гроза морей

650

Пост 11-Фев-2014 17:49 (спустя 55 минут)

[Q] 

Спасибо!!! Лови бочку

_________________
[Профиль]  [ЛС] 

Michaell43

Корсар

379

Пост 14-Фев-2014 11:53 (спустя 2 дня 18 часов)

[Q] 

Посмотрим. Спасибо!!!
[Профиль]  [ЛС] 
Показать сообщения:    
Ответить на тему

Текущее время: Сегодня 14:48

Часовой пояс: GMT + 4



Вы не можете начинать темы
Вы не можете отвечать на сообщения
Вы не можете редактировать свои сообщения
Вы не можете удалять свои сообщения
Вы не можете голосовать в опросах
Вы не можете прикреплять файлы к сообщениям
Вы не можете скачивать файлы

▼ Вниз