ML
     
  Уважаемый Гость!
Вы можете поддержать проект и зарегистрироваться у наших партнеров - онлайн-стратегия MyLands. При регистрации в игре Вы получите код, который сможете активировать после регистрации на pirat.ca и получить 1000 дублонов.

Ваш код:
cc3be08b7507661c03e0a2f582d0da3a659ea55a
 
     

Странное дело. Создатели Франкенштейнов / [Эфир от 24.01.2014] (Вадим Артеменко) [2014 г., Документальный, SATRip]

Ответить на тему
 
Автор
Сообщение

Пост 11-Фев-2014 19:32

[Q] 

mersicc

Корсар

-Странное дело. Создатели Франкенштейнов-- Производство: Россия
Жанр: Документальный
Год выпуска: 2014 г.
Продолжительность: 00:47:32
Перевод: Не требуется
Оригинальный аудиопоток: русский
Режиссер: Вадим Артеменко-Описание: Каждый выпуск программы - это отдельный документальный фильм, посвященный одной из самых волнующих тем человечества. Всё события в нашем мире предопределены и закономерны. Существует вселенский сценарий, по которому происходит то или иное действие. Есть некая теория времени что всё в этом мире уже есть, всё в этом мире уже было, всё в этом мире будет, так ли это...
В выпуске:
Можно ли скрестить человека с животным? Оказывается, на протяжении всего двадцатого века наука пыталась вывести гибридное существо. Для чего? И как далеко продвинулись создатели франкенштейнов?-Качество видео: SATRip
Контейнер: AVI
Видео кодек: DivX
Аудио кодек: MP3
Видео: 720x400 (1.80:1), 25 fps, DivX Codec 5.x or 6.x ~1501 kbps avg, 0.21 bit/pixel
Аудио: 48 kHz, MPEG Layer 3, 2 ch, ~128.00 kbps avg
Cубтитры: отсутствуют
General
Complete name : D:\Strannoe.delo.2014.01.24.SATRip.avi
Format : AVI
Format/Info : Audio Video Interleave
File size : 557 MiB
Duration : 47mn 32s
Overall bit rate : 1 639 Kbps
Writing application : VirtualDubModRus 1.5.10.2 (build 2540/release)
Writing library : VirtualDubMod build 2540/release
Video
ID : 0
Format : MPEG-4 Visual
Format settings, BVOP : 1
Format settings, QPel : No
Format settings, GMC : No warppoints
Format settings, Matrix : Default (H.263)
Muxing mode : Packed bitstream
Codec ID : DX50
Codec ID/Hint : DivX 5
Duration : 47mn 32s
Bit rate : 1 501 Kbps
Width : 720 pixels
Height : 400 pixels
Display aspect ratio : 16:9
Frame rate : 25.000 fps
Color space : YUV
Chroma subsampling : 4:2:0
Bit depth : 8 bits
Scan type : Progressive
Compression mode : Lossy
Bits/(Pixel*Frame) : 0.208
Stream size : 510 MiB (92%)
Writing library : DivX 3013
Audio
ID : 1
Format : MPEG Audio
Format version : Version 1
Format profile : Layer 3
Codec ID : 55
Codec ID/Hint : MP3
Duration : 47mn 32s
Bit rate mode : Constant
Bit rate : 128 Kbps
Channel count : 2 channels
Sampling rate : 48.0 KHz
Compression mode : Lossy
Stream size : 43.5 MiB (8%)
Alignment : Split accross interleaves
Interleave, duration : 40 ms (1.00 video frame)
Interleave, preload duration : 500 ms
Download / Скачать

Хотите скачать бесплатно? Зарегистрируйтесь на сайте (ссылка на регистрацию). Pirat.ca - самый быстрый торрент трекер в рунете!

Как скачивать  ·   Что такое торрент  ·   Рейтинг и ограничения



Последний раз редактировалось: mersicc (2014-02-11 22:54), всего редактировалось 2 раз(а)

serg_bmw

Гроза морей

650

Пост 11-Фев-2014 21:11 (спустя 1 час 38 минут)

[Q] 

Лови бочку

_________________
[Профиль]  [ЛС] 
Показать сообщения:    
Ответить на тему

Текущее время: Сегодня 05:05

Часовой пояс: GMT + 4



Вы не можете начинать темы
Вы не можете отвечать на сообщения
Вы не можете редактировать свои сообщения
Вы не можете удалять свои сообщения
Вы не можете голосовать в опросах
Вы не можете прикреплять файлы к сообщениям
Вы не можете скачивать файлы

▼ Вниз