ML
     
  Уважаемый Гость!
Вы можете поддержать проект и зарегистрироваться у наших партнеров - онлайн-стратегия MyLands. При регистрации в игре Вы получите код, который сможете активировать после регистрации на pirat.ca и получить 1000 дублонов.

Ваш код:
a6d1ef7ff63e237add5a4c8b21d8aa937c5e9b4b
 
     

Великие тайны - Великие тайны Апокалипсиса / [Эфир от 13.02.2014] (Евгений Пешков) [2014 г., документальный, SATRip]

Ответить на тему
 
Автор
Сообщение

Пост 14-Фев-2014 18:41

[Q] 

mersicc

Корсар

-Великие тайны - Великие тайны Апокалипсиса-- Производство: Россия
Жанр: документальный
Год выпуска: 2014 г.
Продолжительность: 02:23:54
Перевод: Не требуется
Оригинальный аудиопоток: русский
Режиссер: Евгений Пешков-Описание: Некоторые ученые утверждают, что совсем скоро наша планета может войти в очередной цикл катастроф… Станет ли это началом конца для человечества или мы извлечем опыт из прошлых катастроф и,значит, сможем выжить…-Качество видео: SATRip
Контейнер: AVI
Видео кодек: XviD
Аудио кодек: MP3
Видео: 720x400 (1.80:1), 25 fps, XviD MPEG-4 ~1494 kbps avg, 0.21 bit/pixel
Аудио: 48 kHz, MPEG Layer 3, 2 ch, ~128.00 kbps avg
Cубтитры: отсутствуют
General
Complete name : D:\Velikie.tajny.13.02.2014.SATRip.avi
Format : AVI
Format/Info : Audio Video Interleave
File size : 1.64 GiB
Duration : 2h 23mn
Overall bit rate : 1 633 Kbps
Writing application : VirtualDubMod 1.5.10.2 (build 2540/release)
Writing library : VirtualDubMod build 2540/release
Video
ID : 0
Format : MPEG-4 Visual
Format profile : Advanced [email protected]
Format settings, BVOP : 2
Format settings, QPel : No
Format settings, GMC : No warppoints
Format settings, Matrix : Default (MPEG)
Muxing mode : Packed bitstream
Codec ID : XVID
Codec ID/Hint : XviD
Duration : 2h 23mn
Bit rate : 1 495 Kbps
Width : 720 pixels
Height : 400 pixels
Display aspect ratio : 16:9
Frame rate : 25.000 fps
Color space : YUV
Chroma subsampling : 4:2:0
Bit depth : 8 bits
Scan type : Progressive
Compression mode : Lossy
Bits/(Pixel*Frame) : 0.208
Stream size : 1.50 GiB (92%)
Writing library : XviD 64
Audio
ID : 1
Format : MPEG Audio
Format version : Version 1
Format profile : Layer 3
Mode : Joint stereo
Codec ID : 55
Codec ID/Hint : MP3
Duration : 2h 23mn
Bit rate mode : Constant
Bit rate : 128 Kbps
Channel count : 2 channels
Sampling rate : 48.0 KHz
Compression mode : Lossy
Stream size : 132 MiB (8%)
Alignment : Aligned on interleaves
Interleave, duration : 40 ms (1.00 video frame)
Interleave, preload duration : 504 ms
Download / Скачать

Хотите скачать бесплатно? Зарегистрируйтесь на сайте (ссылка на регистрацию). Pirat.ca - самый быстрый торрент трекер в рунете!

Как скачивать  ·   Что такое торрент  ·   Рейтинг и ограничения

muz4in

Морской Волк

Пост 15-Фев-2014 12:01 (спустя 17 часов)

[Q] 

поглядим)) ХЗ!!!
[Профиль]  [ЛС] 

Владимир-24

Штурман

Пост 14-Апр-2014 18:01 (спустя 1 месяц 27 дней)

[Q] 

Люблю посмотреть что-то новенькое!
[Профиль]  [ЛС] 

vinibek2

Морской Волк

Пост 07-Июл-2014 15:18 (спустя 2 месяца 22 дня)

[Q] 

Очередной бред?
[Профиль]  [ЛС] 
Показать сообщения:    
Ответить на тему

Текущее время: Сегодня 13:36

Часовой пояс: GMT + 4



Вы не можете начинать темы
Вы не можете отвечать на сообщения
Вы не можете редактировать свои сообщения
Вы не можете удалять свои сообщения
Вы не можете голосовать в опросах
Вы не можете прикреплять файлы к сообщениям
Вы не можете скачивать файлы

▼ Вниз