ML
     
  Уважаемый Гость!
Вы можете поддержать проект и зарегистрироваться у наших партнеров - онлайн-стратегия MyLands. При регистрации в игре Вы получите код, который сможете активировать после регистрации на pirat.ca и получить 1000 дублонов.

Ваш код:
ea554e7ed3eacceeae87a8b30a9de3f086c18a84
 
     

Секретные территории - НЛО. Соседи по солнцу / (Александр Милославов) [2011 г., документальный, SATRip]

Ответить на тему
 
Автор
Сообщение

Пост 15-Фев-2014 14:50

[Q] 

vikz

Лоцман

-Секретные территории - НЛО. Соседи по солнцу-- Производство: Россия, РенТВ
Жанр: документальный
Год выпуска: 2011 г.
Продолжительность: 00:47:32
Перевод: Не требуется
Оригинальный аудиопоток: русский
Режиссер: Александр Милославов-Описание: Некоторые ученые убеждены - разум зародился на планете Фаэтон гораздо раньше, чем на Земле. Но планета погибла… Куда же делись ее обитатели? Переселились на Землю или живут на неизвестных нам еще планетах Солнечной системы?..-Качество видео: SATRip
Контейнер: AVI
Видео кодек: XviD
Аудио кодек: MP3
Видео: 704х400, ~1500 Kbps, 25 fps
Аудио: 128 Kbps, 2 ch, 48 KHz
Cубтитры: отсутствуют
Format : AVI
Format/Info : Audio Video Interleave
File size : 557 MiB
Duration : 47mn 32s
Overall bit rate : 1 638 Kbps
Writing application : VirtualDubMod 1.5.10.2 (build 2540/release)
Writing library : VirtualDub build 32507/release
Video #0
ID : 0
Format : MPEG-4 Visual
Format profile : Advanced [email protected]
Format settings, BVOP : Yes
Format settings, QPel : No
Format settings, GMC : No warppoints
Format settings, Matrix : Default (MPEG)
Muxing mode : Packed bitstream
Codec ID : XVID
Codec ID/Hint : XviD
Duration : 47mn 32s
Bit rate : 1 500 Kbps
Width : 704 pixels
Height : 400 pixels
Display aspect ratio : 16:9
Frame rate : 25.000 fps
Color space : YUV
Chroma subsampling : 4:2:0
Bit depth : 8 bits
Scan type : Progressive
Bits/(Pixel*Frame) : 0.213
Stream size : 510 MiB (92%)
Writing library : XviD 58
Audio #1
ID : 1
Format : MPEG Audio
Format version : Version 1
Format profile : Layer 3
Mode : Joint stereo
Mode extension : MS Stereo
Codec ID : 55
Codec ID/Hint : MP3
Duration : 47mn 32s
Bit rate mode : Constant
Bit rate : 128 Kbps
Channel(s) : 2 channels
Sampling rate : 48.0 KHz
Stream size : 43.5 MiB (8%)
Alignment : Aligned on interleaves
Interleave, duration : 40 ms (1.00 video frame)
Interleave, preload duration : 504 ms
Download / Скачать

Хотите скачать бесплатно? Зарегистрируйтесь на сайте (ссылка на регистрацию). Pirat.ca - самый быстрый торрент трекер в рунете!

Как скачивать  ·   Что такое торрент  ·   Рейтинг и ограничения



Последний раз редактировалось: vikz (2014-02-15 19:28), всего редактировалось 2 раз(а)

vikz ®

Лоцман

10

Пост 15-Фев-2014 14:51 (спустя 1 минута)

[Q] 

Мой первый релиз - сильно не пинайте!
[Профиль]  [ЛС] 

Честер

Морской Волк

78

Пост 15-Фев-2014 15:27 (спустя 36 минут)

[Q] 

Спасибо. Посмотрим че там за соседи.
[Профиль]  [ЛС] 

vikz ®

Лоцман

10

Пост 15-Фев-2014 16:22 (спустя 54 минуты)

[Q] 

493655Спасибо. Посмотрим че там за соседи.
Есть много таких передач. Если нужны - могу выкладывать часто.
[Профиль]  [ЛС] 

pirat.ca1983

Шкипер

Пост 15-Фев-2014 23:09 (спустя 6 часов)

[Q] 

Мне понравилось
[Профиль]  [ЛС] 
Показать сообщения:    
Ответить на тему

Текущее время: Сегодня 12:12

Часовой пояс: GMT + 4



Вы не можете начинать темы
Вы не можете отвечать на сообщения
Вы не можете редактировать свои сообщения
Вы не можете удалять свои сообщения
Вы не можете голосовать в опросах
Вы не можете прикреплять файлы к сообщениям
Вы не можете скачивать файлы

▼ Вниз