ML
     
  Уважаемый Гость!
Вы можете поддержать проект и зарегистрироваться у наших партнеров - онлайн-стратегия MyLands. При регистрации в игре Вы получите код, который сможете активировать после регистрации на pirat.ca и получить 1000 дублонов.

Ваш код:
193c38d0130f05c24de871678ea3ac181461757d
 
     

Паранормальное. Круги на полях / Paranormal: Crop circles (Патрик Роджерс) [2013 г., Документальный, научно-популярный, SATRip] VO

Ответить на тему
 
Автор
Сообщение

Пост 03-Мар-2014 03:12

[Q] 

mersicc

Корсар

-Паранормальное. Круги на полях / Paranormal: Crop circles-- Производство: США
Жанр: Документальный, научно-популярный
Год выпуска: 2013 г.
Продолжительность: 00:44:59
Перевод: Профессиональный (одноголосый, закадровый)
Режиссер: Патрик Роджерс-Описание: Обычно воспринимаемые как розыгрыш, загадочные круги на полях появляются в разных частях Земли. Могут ли они быть посланиями из других миров?-Качество видео: SATRip
Контейнер: AVI
Видео кодек: XviD
Аудио кодек: MP3
Видео: 720x400 (1.80:1), 25 fps, XviD build 50 ~1796 kbps avg, 0.25 bit/pixel
Аудио: 48 kHz, MPEG Layer 3, 2 ch, ~192.00 kbps avg
Cубтитры: отсутствуют
General
Complete name : D:\Krugi.na.poljah.avi
Format : AVI
Format/Info : Audio Video Interleave
File size : 643 MiB
Duration : 44mn 59s
Overall bit rate : 1 998 Kbps
Writing application : VirtualDubModRus 1.5.10.2 (build 2542/release)
Writing library : VirtualDubMod build 2542/release
Video
ID : 0
Format : MPEG-4 Visual
Format profile : Advanced [email protected]
Format settings, BVOP : 1
Format settings, QPel : No
Format settings, GMC : No warppoints
Format settings, Matrix : Default (H.263)
Codec ID : XVID
Codec ID/Hint : XviD
Duration : 44mn 59s
Bit rate : 1 796 Kbps
Width : 720 pixels
Height : 400 pixels
Display aspect ratio : 16:9
Frame rate : 25.000 fps
Color space : YUV
Chroma subsampling : 4:2:0
Bit depth : 8 bits
Scan type : Progressive
Compression mode : Lossy
Bits/(Pixel*Frame) : 0.249
Stream size : 578 MiB (90%)
Writing library : XviD 1.2.1 (UTC 2008-12-04)
Audio
ID : 1
Format : MPEG Audio
Format version : Version 1
Format profile : Layer 3
Codec ID : 55
Codec ID/Hint : MP3
Duration : 44mn 59s
Bit rate mode : Constant
Bit rate : 192 Kbps
Channel count : 2 channels
Sampling rate : 48.0 KHz
Compression mode : Lossy
Stream size : 61.8 MiB (10%)
Alignment : Aligned on interleaves
Interleave, duration : 40 ms (1.00 video frame)
Interleave, preload duration : 504 ms
Writing library : LAME3.99r
Encoding settings : -m s -V 4 -q 2 -lowpass 18.6 -b 192
Download / Скачать

Хотите скачать бесплатно? Зарегистрируйтесь на сайте (ссылка на регистрацию). Pirat.ca - самый быстрый торрент трекер в рунете!

Как скачивать  ·   Что такое торрент  ·   Рейтинг и ограничения

ValeraTerechenko

Корсар

142

Пост 04-Мар-2014 06:45 (спустя 1 день 3 часа)

[Q] 

Некоторые может и поддельные. Но как такие узоры можно создать за короткое время и вручную без поддержки с воздуха, это непонятно. aa
[Профиль]  [ЛС] 
Показать сообщения:    
Ответить на тему

Текущее время: Сегодня 18:02

Часовой пояс: GMT + 4



Вы не можете начинать темы
Вы не можете отвечать на сообщения
Вы не можете редактировать свои сообщения
Вы не можете удалять свои сообщения
Вы не можете голосовать в опросах
Вы не можете прикреплять файлы к сообщениям
Вы не можете скачивать файлы

▼ Вниз