ML
     
  Уважаемый Гость!
Вы можете поддержать проект и зарегистрироваться у наших партнеров - онлайн-стратегия MyLands. При регистрации в игре Вы получите код, который сможете активировать после регистрации на pirat.ca и получить 1000 дублонов.

Ваш код:
a01a592a88af5f9996a6d1baec61b18a1769954d
 
     

Запретные темы истории / Серии: 28 из 28 (Андрей Скляров) [2004-2009 г., документальный, DVDRip] [Original (Rus)]

Ответить на тему
 
Автор
Сообщение

Пост 15-Июн-2014 03:03

[Q] 

AnastasWolf

-Запретные темы истории- Год выпуска: 2004-2009 г.
Производство: Россия , фонд развития науки "III тысячелетие"
Жанр: документальный
Продолжительность: 28x ~ 00:44:44
Перевод: Не требуется
Оригинальный аудиопоток: русский
Режиссёр: Андрей Скляров-В ролях: Андрей Скляров, Андрей Жуков, Алексей Тесленко, Александр Дымников-Описание: Основная идея проекта: проведение съёмочно-исследовательских экспедиций в разные уголки планеты с целью сбора информации, которая в корне противоречит официальной версии истории и которая по этой причине тщательно скрывается или замалчивается академической наукой. А также: освещение версий и теорий, которые хоть и объясняют "странные" факты, но не поддерживаются академической наукой по той же причине.
-Качество видео: DVDRip
Контейнер: AVI
Видео кодек: XviD, DivX, AVC
Аудио кодек: AC3, MP3, MP2
Видео: 720x544, ~ 1911 kbps avg; 720x576, ~ 1666 kbps avg; 704x416, ~ 2222 kbps avg, 25 fps, 0.195 bit/pixel
Аудио: 192; 224 kbps, 2 ch, 48.0 kHz
Cубтитры: отсутствуют
Общее
Полное имя : Тайны семи пирамид.avi
Формат : AVI
Формат/Информация : Audio Video Interleave
Размер файла : 400 Мбайт
Продолжительность : 26 м.
Общий поток : 2145 Кбит/сек
Программа кодирования : VirtualDubMod 1.5.10.3 | (build 2550/release)
Библиотека кодирования : VirtualDubMod build 2550/release
Видео
Идентификатор : 0
Формат : MPEG-4 Visual
Профиль формата : [email protected]
Параметр BVOP формата : Нет
Параметр QPel формата : Нет
Параметр GMC формата : Без точки перехода
Параметр матрицы формата : Default (H.263)
Идентификатор кодека : XVID
Идентификатор кодека/Подсказка : XviD
Продолжительность : 26 м.
Битрейт : 1911 Кбит/сек
Ширина : 720 пикселей
Высота : 544 пикселя
Соотношение сторон : 4:3
Частота кадров : 25,000 кадров/сек
Цветовое пространство : YUV
Субдискретизация насыщенности : 4:2:0
Битовая глубина : 8 бит
Тип развёртки : Прогрессивная
Метод сжатия : С потерями
Бит/(Пиксели*Кадры) : 0.195
Размер потока : 357 Мбайт (89%)
Библиотека кодирования : Lavc53.7.0
Аудио
Идентификатор : 1
Формат : MPEG Audio
Версия формата : Version 1
Профиль формата : Layer 2
Идентификатор кодека : 50
Продолжительность : 26 м.
Вид битрейта : Постоянный
Битрейт : 224 Кбит/сек
Каналы : 2 канала
Частота : 48,0 КГц
Метод сжатия : С потерями
Размер потока : 41,8 Мбайт (10%)
Выравнивание : Соединение по промежуткам
Продолжительность промежутка : 40 мс. (1,00 видеокадр)
Время предзагрузки промежутка : 504 мс.
Скриншоты:
* Загадки древнего Египта (6 серий) [Видео: XviD, 720x544, ~ 1911 kbps avg, 25 fps, 0.195 bit/pixel; Аудио: MP2, 224 kbps, 2 ch, 48.0 kHz]
* Неизвестная Мексика (6 серий) [Видео: XviD, 720x576, ~ 1700 kbps avg, 29.970 fps, 0.138 bit/pixel; Аудио: MP3, 192 kbps, 2 ch, 44.1 kHz]
* Перу и Боливия задолго до инков (6 серий) [Видео: XviD, 704x416, ~ 2222 kbps avg, 25 fps, 0.334 bit/pixel; Аудио: AC3, 192 kbps, 2 ch, 48.0 kHz]
* Ковчег завета - Эфиопский след [Видео: XviD, 640x394, 1199 kbps, 25 fps, 0.190 bit/pixel; Аудио: AC3, 192 kbps, 2 ch, 48.0 kHz]
* Невозможный Нан-Мадол [Видео: AVC, 720x576, 2475 kbps, 25 fps, 0.239 bit/pixel; Аудио: MP3, 64 kbps, 2 ch, 44.1 kHz]
* Тайны Йонагуни (2 серии) [Видео: AVC, 720x576, ~ 2037 kbps avg, 25 fps, 0.197 bit/pixel; Аудио: MP3, 64 kbps, 2 ch, 44.1 kHz]
* Восточная коллекция: от наследия до поделок (3 серии) [Видео: DivX, 704x384, ~ 1326 kbps avg, 25 fps, 0.196 bit/pixel; Аудио: MP3, 128 kbps, 2 ch, 48.0 kHz]
* Экспедиция в Перу [Видео: AVC, 720x400, 329 kbps, 25 fps, 0.046 bit/pixel; Аудио: MP3, 128 kbps, 2 ch, 44.1 kHz]
* Геометрия вселенной с разных точек зрения [Видео: DivX, 640x480, 1768 kbps, 25 fps, 0.230 bit/pixel; Аудио: MP3, 128 kbps, 2 ch, 48.0 kHz]
* Пирамиды Египта и свойства пространства поличисел Н4 (доклад) [Видео: DivX, 320x240, 204 kbps, 25 fps, 0.107 bit/pixel; Аудио: MP3, 128 kbps, 2 ch, 44.1 kHz]
-
Download / Скачать

Хотите скачать бесплатно? Зарегистрируйтесь на сайте (ссылка на регистрацию). Pirat.ca - самый быстрый торрент трекер в рунете!

Как скачивать  ·   Что такое торрент  ·   Рейтинг и ограничения

Pit

Пост 20-Июн-2014 15:00 (спустя 5 дней)

[Q] 

Прикольно. Можно разок послушать На любителя
[Профиль]  [ЛС] 

AnastasWolf ®

3476

Пост 04-Авг-2014 20:20 (спустя 1 месяц 14 дней)

[Q] 

Pit, не могу согласиться, так как интересуюсь альтернативной историей, а не той малой частью, которую разрешено знать!
Вдвойне интересно, когда исследователя спустя какое-то время принуждают отказываться от собственных открытий и тот факт, что большая часть пирамид в Мексике закрыта для туристов, также не остаётся без внимания. А в Египте совсем недавно закрыли ВСЕ пирамиды. Предположения по этому поводу оставлю при себе.
Но если тебе нравится верить в школьную картинку, вроде этой , то ты, конечно, можешь считать себя профессионалом по части строительства пирамид. :)

Сколько тонн весит такой блок, не подскажешь? >;}

_________________
[Профиль]  [ЛС] 

Pit

Пост 04-Авг-2014 21:32 (спустя 1 час 12 минут)

[Q] 

Запросто.
Тот, что сфотографирован - пенопластовый. Весит 13 кг.
Блоки пирамид, в частности, весят 2-3 тонны.
Дык с одного раза хорошо запоминается. Зачем слушать дважды.
Ещё убедительно застряла в сером веществе статья про воду, состав которой не доказан никем
и ещё в школе химик демонстрировал кислотные свойства последней.
и азот, с которым у Менделеева конфуз.
У меня своё мнение, отличное и от позиции официальной истории, и от позиции авторов фильма.
Удачи.
[Профиль]  [ЛС] 

AnastasWolf ®

3476

Пост 07-Авг-2014 15:38 (спустя 2 дня 18 часов)

[Q] 

Pit, запомнить проще, чем понять.
Спасибо.

_________________
[Профиль]  [ЛС] 

Pit

Пост 18-Авг-2014 10:27 (спустя 10 дней)

[Q] 

Однако.
Без "понять" нет "запомнить".
Удачи.
[Профиль]  [ЛС] 

AnastasWolf ®

3476

Пост 23-Авг-2014 00:04 (спустя 4 дня)

[Q] 

569545Без "понять" нет "запомнить".
Эх, если бы у всех так было, мир был бы другим!

_________________
[Профиль]  [ЛС] 
Показать сообщения:    
Ответить на тему

Текущее время: Сегодня 09:49

Часовой пояс: GMT + 4



Вы не можете начинать темы
Вы не можете отвечать на сообщения
Вы не можете редактировать свои сообщения
Вы не можете удалять свои сообщения
Вы не можете голосовать в опросах
Вы не можете прикреплять файлы к сообщениям
Вы не можете скачивать файлы

▼ Вниз