ML
     
  Уважаемый Гость!
Вы можете поддержать проект и зарегистрироваться у наших партнеров - онлайн-стратегия MyLands. При регистрации в игре Вы получите код, который сможете активировать после регистрации на pirat.ca и получить 1000 дублонов.

Ваш код:
e93cd9e43017f251127f220889864c05934e61c6
 
     

Секретные территории. Звездные врата. Тайна гиблых мест (Анна Колодезнева, Елена Гришина) [2011 г., Документальный, SATRip]

Ответить на тему
 
Автор
Сообщение

Пост 05-Ноя-2011 18:51

[Q] 

Степаныч

Секретные территории. Звездные врата. Тайна гиблых мест
Год выпуска: 2011
Производство: Россия, РЕН ТВ
Жанр: Документальный
Продолжительность: 00:44:08
Режиссер: Анна Колодезнева, Елена Гришина
В ролях: В фильме снимались :Валерий Уваров, Евгений Файдыш, Эрнст Мулдашев
Описание: Каждая древняя цивилизация знала о таинственных "вратах" в иные миры: оттуда приходили загадочные пришельцы, там пропадали люди. Оказывается, в древности "вратами" умели пользоваться.
Источник/Качество: SATRip
Формат: M2TS
Видео кодек: MPEG2
Аудио кодек: MP2
Видео: MPEG 2, 544x576 (4/3), 25.000 fps, 15.0 Mbps (0.202 bit/pixel)
Аудио: MP2, 48.0 KHz, 2 ch, 160 Kbps, CBR
Формат : MPEG-TS
Размер файла : 592 Мбайт
Продолжительность : 44 м.
Общий поток : 1875 Кбит/сек
Видео
Идентификатор : 3601 (0xE11)
Идентификатор меню : 3 (0x3)
Формат : MPEG Video
Версия формата : Version 2
Профиль формата : [email protected]
Параметр BVOP формата : Да
Параметр матрицы формата : По умолчанию
Идентификатор кодека : 2
Продолжительность : 44 м.
Вид битрейта : Переменный
Битрейт : 1621 Кбит/сек
Номинальный битрейт : 15,0 Мбит/сек
Ширина : 544 пикс.
Высота : 576 пикс.
Соотношение сторон : 4:3
Частота кадров : 25,000 кадр/сек
Цветовое пространство : YUV
Подвыборка цветности : 4:2:0
Битовая глубина : 8 бит
Тип развёртки : Чересстрочная
Порядок развёртки : Верхнее поле первое
Метод сжатия : С потерями
Бит/(Пиксели*Кадры) : 0.207
Размер потока : 512 Мбайт (86%)
Библиотека кодирования : (c) 1998-2010 Womble Multimedia, Inc. / MPEG Video Wizard DVD 5.0.0.114 (01/2010) / Jul 5 2010
Аудио
Идентификатор : 3602 (0xE12)
Идентификатор меню : 3 (0x3)
Формат : MPEG Audio
Версия формата : Version 1
Профиль формата : Layer 2
Идентификатор кодека : 3
Продолжительность : 44 м.
Вид битрейта : Постоянный
Битрейт : 160 Кбит/сек
Канал(ы) : 2 канала(ов)
Частота : 48,0 КГц
Метод сжатия : С потерями
Задержка видео : -40 мс.
Размер потока : 50,5 Мбайт (9%)




Download / Скачать

Хотите скачать бесплатно? Зарегистрируйтесь на сайте (ссылка на регистрацию). Pirat.ca - самый быстрый торрент трекер в рунете!

Как скачивать  ·   Что такое торрент  ·   Рейтинг и ограничения



Последний раз редактировалось: Степаныч (2011-11-07 10:28), всего редактировалось 1 раз

Haron

Шкипер

Пост 14-Янв-2012 12:40 (спустя 2 месяца 8 дней)

[Q] 

Есть мнение, что Земля сейчас находится в таком пространстве галактики, где врата не работают.
Возможно, скоро заработают.
[Профиль]  [ЛС] 

C0y0te

1417

Пост 16-Янв-2012 21:34 (спустя 2 дня 8 часов)

[Q] 

Спасибо Раздающему респект
[Профиль]  [ЛС] 

Ферзь

Корсар

Пост 24-Июн-2012 19:50 (спустя 5 месяцев 7 дней)

[Q] 

Степаныч

_________________
[Профиль]  [ЛС] 

Dontist

Шкипер

Пост 15-Янв-2013 01:22 (спустя 6 месяцев 20 дней)

[Q] 

Спасибо.
[Профиль]  [ЛС] 

Фтещт

Корсар

61

Пост 10-Май-2013 12:41 (спустя 3 месяца 26 дней)

[Q] 

[Профиль]  [ЛС] 

Фтещт

Корсар

61

Пост 10-Май-2013 12:42 (спустя 1 минута)

[Q] 

[Профиль]  [ЛС] 
Показать сообщения:    
Ответить на тему

Текущее время: Сегодня 04:29

Часовой пояс: GMT + 4



Вы не можете начинать темы
Вы не можете отвечать на сообщения
Вы не можете редактировать свои сообщения
Вы не можете удалять свои сообщения
Вы не можете голосовать в опросах
Вы не можете прикреплять файлы к сообщениям
Вы не можете скачивать файлы

▼ Вниз