ML
     
  Уважаемый Гость!
Вы можете поддержать проект и зарегистрироваться у наших партнеров - онлайн-стратегия MyLands. При регистрации в игре Вы получите код, который сможете активировать после регистрации на pirat.ca и получить 1000 дублонов.

Ваш код:
a978488e62322cd72e113ab723b8a7fdc10eb9b9
 
     

Странное дело (9 выпусков) [РЕН ТВ 02.12.2011] (Игорь Прокопенко) [2011 г., Документальный цикл, познавательное ТВ, SATRip]

Ответить на тему
 
Автор
Сообщение

Пост 22-Ноя-2011 22:50

[Q] 

mersicc

Корсар

Странное дело. (9 выпусков)-
Год выпуска: 2011
Производство: Россия, РЕН ТВ
Жанр: Документальный
Продолжительность: 00:47:59
Перевод: Original
Оригинальный аудиопоток: Русский-Режиссер: Евгений Пешков-Описание: Каждый выпуск программы - это отдельный документальный фильм, посвященный одной из самых волнующих тем человечества. Всё события в нашем мире предопределены и закономерны. Существует вселенский сценарий, по которому происходит то или иное действие. Есть некая теория времени что всё в этом мире уже есть, всё в этом мире уже было, всё в этом мире будет, так ли это...-Источник/Качество: SATRip
Формат: AVI
Видео кодек: DivX
Аудио кодек: MPEG Layer 3 Audio
Видео: 704x432 (1.63:1), 25 fps, DivX 6.8.5 ~1279 kbps, 0.17 bit/pixel
Аудио: 48 kHz, MPEG Layer 3 (Lame), 2 ch, ~128 kbps avg
-
01. "Околдованные Вселенной" (эфир_30.09.2011):
02. "Теорема Судного дня" (эфир_07.10.2011):
03. "Смертельная маска" (эфир_14.10.2011):
04. "Голоса из безмолвия" (эфир_21.10.2011):
05. "Распутин. Исповедь падшего ангела" (эфир_28.10.2011):
06. "Подводные пришельцы" (эфир_11.11.2011): Очень интересный
07. "Космос. Плохие соседи" (эфир_18.11.2011):
08. "Отравленные сокровища" (эфир_25.11.2011):
09. "Расписание на целый век" (эфир_02.12.2011):
-
Видео
Идентификатор : 0
Формат : MPEG-4 Visual
Параметр BVOP формата : 1
Параметр QPel формата : Нет
Параметр GMC формата : Без точки перехода
Параметр матрицы формата : Default (H.263)
Режим смешивания : Сжатый битовый поток
Идентификатор кодека : DX50
Идентификатор кодека/Подсказка : DivX 5
Продолжительность : 47 м.
Битрейт : 1480 Кбит/сек
Ширина : 704 пикс.
Высота : 432 пикс.
Соотношение сторон : 1,630
Частота кадров : 25,000 кадр/сек
Цветовое пространство : YUV
Подвыборка цветности : 4:2:0
Битовая глубина : 8 бит
Тип развёртки : Прогрессивная
Метод сжатия : С потерями
Бит/(Пиксели*Кадры) : 0.195
Размер потока : 503 Мбайт (91%)
Библиотека кодирования : DivX 6.8.5 (UTC 2009-08-20)
Аудио
Идентификатор : 1
Формат : MPEG Audio
Версия формата : Version 1
Профиль формата : Layer 3
Режим : Joint stereo
Расширение режима : MS Stereo
Идентификатор кодека : 55
Идентификатор кодека/Подсказка : MP3
Продолжительность : 47 м.
Вид битрейта : Постоянный
Битрейт : 128 Кбит/сек
Каналы : 2 канала
Частота : 48,0 КГц
Метод сжатия : С потерями
Размер потока : 43,5 Мбайт (8%)
Выравнивание : Разделение по промежуткам
Продолжительность промежутка : 40 мс. (1,00 видеокадр)
Время предзагрузки промежутка : 500 мс.
-












Download / Скачать

Хотите скачать бесплатно? Зарегистрируйтесь на сайте (ссылка на регистрацию). Pirat.ca - самый быстрый торрент трекер в рунете!

Как скачивать  ·   Что такое торрент  ·   Рейтинг и ограничения



Последний раз редактировалось: mersicc (2011-12-03 11:33), всего редактировалось 5 раз(а)

TUS7884

Флибустьер

Пост 11-Ноя-2012 18:56 (спустя 11 месяцев 18 дней)

[Q] 

[Профиль]  [ЛС] 

FruTT

Корсар

2

Пост 13-Фев-2013 20:26 (спустя 3 месяца 2 дня)

[Q] 

Спасибо! некоторые выпуски не смотрел, будет интересно!))

_________________
Подпись отключена за нарушение правил форума
[Профиль]  [ЛС] 

Фтещт

Корсар

61

Пост 10-Мар-2013 17:56 (спустя 24 дня)

[Q] 

а сидера нет и не будет чтоли?
[Профиль]  [ЛС] 

mersicc ®

Корсар

1614

Пост 11-Ноя-2013 21:49 (спустя 8 месяцев 1 день)

[Q] 

Ахринеть..рейтинг считает..даже мои раздачи што скачал..дела be

_________________
[Профиль]  [ЛС] 
Показать сообщения:    
Ответить на тему

Текущее время: Сегодня 22:05

Часовой пояс: GMT + 4



Вы не можете начинать темы
Вы не можете отвечать на сообщения
Вы не можете редактировать свои сообщения
Вы не можете удалять свои сообщения
Вы не можете голосовать в опросах
Вы не можете прикреплять файлы к сообщениям
Вы не можете скачивать файлы

▼ Вниз