ML
     
  Уважаемый Гость!
Вы можете поддержать проект и зарегистрироваться у наших партнеров - онлайн-стратегия MyLands. При регистрации в игре Вы получите код, который сможете активировать после регистрации на pirat.ca и получить 1000 дублонов.

Ваш код:
a978488e62322cd72e113ab723b8a7fdc10eb9b9
 
     

Секретные Истории - НЛО. Уход под воду [2009 г., Документальный, TVRip]

Ответить на тему
 
Автор
Сообщение

Пост 03-Дек-2011 19:48

[Q] 

mersicc

Корсар

Секретные Истории - НЛО. Уход под воду
Год выпуска: 2009
Производство: Россия, РЕН ТВ
Жанр: Документальный
Продолжительность: 00:43:31
Оригинальный аудиопоток: Русский
Описание: Секреты, возвращенные из небытия и факты, окутанные тайной. Цикл документальных фильмов о самых деликатных моментах мировой истории, прошлого и сегодняшнего дня России.
Источник/Качество: TVRip
Формат: AVI
Видео кодек: XviD
Аудио кодек: MP3
Видео: 688x512 (1.34:1), 25 fps, XviD build 47 ~989 kbps avg, 0.11 bit/pixel
Аудио: 48 kHz, MPEG Layer 3, 2 ch, ~128.00 kbps avg
Видео
Идентификатор : 0
Формат : MPEG-4 Visual
Профиль формата : Advanced [email protected]
Параметр BVOP формата : 1
Параметр QPel формата : Нет
Параметр GMC формата : Без точки перехода
Параметр матрицы формата : Выборочная
Идентификатор кодека : XVID
Идентификатор кодека/Подсказка : XviD
Продолжительность : 43 м.
Битрейт : 989 Кбит/сек
Ширина : 688 пикс.
Высота : 512 пикс.
Соотношение сторон : 4:3
Частота кадров : 25,000 кадр/сек
Цветовое пространство : YUV
Подвыборка цветности : 4:2:0
Битовая глубина : 8 бит
Тип развёртки : Прогрессивная
Метод сжатия : С потерями
Бит/(Пиксели*Кадры) : 0.112
Размер потока : 308 Мбайт (88%)
Библиотека кодирования : XviD 1.2.0.dev47 (UTC 2006-11-01)
Аудио
Идентификатор : 1
Формат : MPEG Audio
Версия формата : Version 1
Профиль формата : Layer 3
Режим : Joint stereo
Расширение режима : MS Stereo
Идентификатор кодека : 55
Идентификатор кодека/Подсказка : MP3
Продолжительность : 43 м.
Вид битрейта : Постоянный
Битрейт : 128 Кбит/сек
Каналы : 2 канала
Частота : 48,0 КГц
Метод сжатия : С потерями
Размер потока : 39,8 Мбайт (11%)
Выравнивание : Разделение по промежуткам
Продолжительность промежутка : 80 мс. (2,00 видеокадра)
Время предзагрузки промежутка : 500 мс.









-Очень интересно..Советую.. bs -
Download / Скачать

Хотите скачать бесплатно? Зарегистрируйтесь на сайте (ссылка на регистрацию). Pirat.ca - самый быстрый торрент трекер в рунете!

Как скачивать  ·   Что такое торрент  ·   Рейтинг и ограничения

keks1969

Лоцман

Пост 07-Авг-2012 23:16 (спустя 8 месяцев 4 дня)

[Q] 

[Профиль]  [ЛС] 

keks1969

Лоцман

Пост 07-Авг-2012 23:17 (спустя 34 секунды)

[Q] 

[Профиль]  [ЛС] 

Фтещт

Корсар

61

Пост 10-Май-2013 12:41 (спустя 9 месяцев 2 дня)

[Q] 

[Профиль]  [ЛС] 

Фтещт

Корсар

61

Пост 10-Май-2013 12:41 (спустя 46 секунд)

[Q] 

[Профиль]  [ЛС] 

Фтещт

Корсар

61

Пост 02-Июн-2013 00:25 (спустя 22 дня)

[Q] 

[Профиль]  [ЛС] 
Показать сообщения:    
Ответить на тему

Текущее время: Сегодня 22:09

Часовой пояс: GMT + 4



Вы не можете начинать темы
Вы не можете отвечать на сообщения
Вы не можете редактировать свои сообщения
Вы не можете удалять свои сообщения
Вы не можете голосовать в опросах
Вы не можете прикреплять файлы к сообщениям
Вы не можете скачивать файлы

▼ Вниз