ML
     
  Уважаемый Гость!
Вы можете поддержать проект и зарегистрироваться у наших партнеров - онлайн-стратегия MyLands. При регистрации в игре Вы получите код, который сможете активировать после регистрации на pirat.ca и получить 1000 дублонов.

Ваш код:
6f9ab67d502902cc72a06c406977ddb589b7f39d
 
     

Подлинная история жизни святой Матроны (Андрей Сычев, Георгий Ананов, Екатериеа Чурикова) [2012 г., Документальный, жизнеописания, SATRip]

Ответить на тему
 
Автор
Сообщение

Пост 09-Июл-2012 22:31

[Q] 

UcrusPazzo

Подлинная история жизни святой Матроны -Год выпуска: 2012
Производство: Россия
Жанр: Документальный, жизнеописания
Продолжительность серии: 00:52:04
Перевод: Не требуется
Субтитры: отсутствуют-Режиссер: Андрей Сычев, Георгий Ананов, Екатериеа Чурикова-В ролях: Виктория Макарская, певица,
Антон Макарский, певец, актер,
Евгений Весник, сын актера Евгения Весника,
Ирина Демидова, родственница Евгения Весника,
Иеромонах Иов (Гумеров),
Руководитель Комиссии по канонизации Святой Матроны,
Отец Глеб (Курский), дьякон церкви Святой Троице в Сходне,
Николай Блохин, историк,
Борис Искаков, доктор экономических наук, академик,
Тамара Голованова, дочь маршала авиации Александра Голованова,
Ольга Голованова, дочь маршала авиации Александра Голованова,
Леонид Извеков, руководитель лаборатории по изучению структуры воды,
Игумен Евстафий (Жаков),
Людмила Ким, целительница,
Алексей Орлов, нейрохирург Главного клинического госпиталя МВД РФ,
Раиса Котельникова, староста храма Успения Святой Богородицы в селе Себино,
Ольга Коекина, нейрофизиолог, доктор наук.-Описание: Святая Матрона Московская или, как ее ласково называют в народе, Матронушка. Она стала одной из главных загадок нашего времени.
Она творила чудеса при жизни, и продолжает совершать их после своей смерти. Очереди к ее мощам в Покровском женском монастыре - ничуть не меньше, чем были к Поясу Богородицы. Сюда приходят за чудом каждый день. И Матронушка помогает. Дает здоровье, счастье материнства...
"Матушка, отведи беду! Сохрани детей! Помоги в работе!" - эти слова произносят, как заклинание. К Матроне приходят даже те, кто никогда не ходил в церковь. В этом фильме герои расскажут, как Матронушка помогла спасти человека от смерти, вывести больного из комы и родить долгожданного ребенка.
Кажется, трудно найти более дружную и любящую пару, чем Антон и Виктория Макарские. Их счастливый союз омрачает лишь одно - отсутствие детей. Несколько лет назад от знакомых певица Виктория Макарская услышала о Святой Матроне, которая помогает бездетным. Вместе с певицей мы отправимся в монастырь к Матронушке и расскажем, что уготовила артистам святая.
Мы встретимся с сыном актера Евгения Весника - Евгением Весником-младшим. Он поведает нам семейную тайну, которую сам узнал только недавно: если бы не Матронушка, он просто не появился бы на свет!
Пророчества Матронушки. В памяти человеческой и истории, как правило, остаются только те пророчества, которые сбылись. Матрона предсказала революцию, Вторую мировую и развал СССР. Ее авторитет уже при жизни был так велик, что к ней прислушивался Сталин. Мы покажем вам икону, на которой изображены… Святая Матронушка и Сталин.
Существует легенда о встрече Сталина и Матронушки. Якобы он пришел к ней во время войны – когда немцы наступали на столицу. Святая сказала: "Облетишь с иконой вокруг Москвы три раза – и немцы не войдут в город!" По легенде Сталин поручил этот крестный ход своему личному пилоту. Церковь легенду не опровергает, но и не подтверждает. Мы провели собственное расследование. Разыскали детей личного пилота Сталина Александра Голованова и нашли икону, с которой, по преданию, и был совершен полет вокруг Москвы.
Мы расскажем еще об одном пророчестве, свершение которого впереди: "Без войны все умрете, жертв много будет, все мертвые на земле будете лежать". Что имела в виду Матронушка? Ответ – в нашем фильме.
Мы попытаемся заглянуть в тайну процесса исцеления больных Матронушкой. Обычно Матрона читала молитву над водой - а затем давала этой водички попить. И человек выздоравливал! Какими словами заговаривала Матрона воду – неизвестно. Но, по мнению ученых, вода, действительно, способна впитывать, хранить и передавать информацию, мысли и эмоции. Мы тоже решили провести свой научный эксперимент. Взяли обычную воду, отнесли ее сначала в агрессивную среду - в бойцовский клуб, а потом в лаборатории посмотрели на рисунок структуры молекул воды. После этого воду отнесли к мощам Матронушки – и вновь в лабораторию. Изменится ли структура воды? И как?
Матронушка каждый день дает нам понять: каждому воздастся по вере его, просите и получите. Тысячи людей, которые приходят к Святой, уверяют – она, действительно, дает то, что у нее просят.-Источник/Качество: SATRip
Формат: AVI
Видео кодек: XviD
Аудио кодек: MP3
Видео: 704x400 (1.76:1), 25 fps, XviD MPEG-4 ~1302 kbps avg, 0.19 bit/pixel
Аудио: 48 kHz, MPEG Layer 3, 2 ch, ~128.00 kbps avg
Общее
Формат : AVI
Формат/Информация : Audio Video Interleave
Размер файла : 536 Мбайт
Продолжительность : 52 м.
Общий поток : 1441 Кбит/сек
Программа кодирования : VirtualDubMod 1.5.10.2 (build 2540/release)
Библиотека кодирования : VirtualDubMod build 2540/release
Видео
Идентификатор : 0
Формат : MPEG-4 Visual
Профиль формата : Advanced [email protected]
Параметр BVOP формата : 2
Параметр QPel формата : Нет
Параметр GMC формата : Без точки перехода
Параметр матрицы формата : Default (H.263)
Режим смешивания : Сжатый битовый поток
Идентификатор кодека : XVID
Идентификатор кодека/Подсказка : XviD
Продолжительность : 52 м.
Битрейт : 1303 Кбит/сек
Ширина : 704 пикселя
Высота : 400 пикселей
Соотношение сторон : 16:9
Частота кадров : 25,000 кадров/сек
Цветовое пространство : YUV
Субдискретизация насыщенности : 4:2:0
Битовая глубина : 8 бит
Тип развёртки : Прогрессивная
Метод сжатия : С потерями
Бит/(Пиксели*Кадры) : 0.185
Размер потока : 485 Мбайт (90%)
Библиотека кодирования : XviD 64
Аудио
Идентификатор : 1
Формат : MPEG Audio
Версия формата : Version 1
Профиль формата : Layer 3
Идентификатор кодека : 55
Идентификатор кодека/Подсказка : MP3
Продолжительность : 52 м.
Вид битрейта : Постоянный
Битрейт : 128 Кбит/сек
Каналы : 2 канала
Частота : 48,0 КГц
Метод сжатия : С потерями
Задержка видео : 24 мс.
Размер потока : 47,7 Мбайт (9%)
Выравнивание : Соединение по промежуткам
Продолжительность промежутка : 40 мс. (1,00 видеокадр)
Время предзагрузки промежутка : 504 мс.
Download / Скачать

Хотите скачать бесплатно? Зарегистрируйтесь на сайте (ссылка на регистрацию). Pirat.ca - самый быстрый торрент трекер в рунете!

Как скачивать  ·   Что такое торрент  ·   Рейтинг и ограничения

Алёха

Флибустьер

Пост 10-Июл-2012 18:53 (спустя 20 часов)

[Q] 

Спасибо, от всего правосласного мира! Фильм не смотрел, но , надеюсь он достоин жития блаженной Матушки Матроны! Храни Вас Бог!
[Профиль]  [ЛС] 

Дядя Витя

53892

Пост 10-Июл-2012 21:51 (спустя 2 часа 58 минут)

[Q] 


Нужное жизнеописание ...

_________________
?
[Профиль]  [ЛС] 

Oksika

Флибустьер

Пост 07-Сен-2012 11:24 (спустя 1 месяц 27 дней)

[Q] 

Матронушка – воистину святая!
Хороший фильм.
[Профиль]  [ЛС] 

берлин

Гроза морей

Пост 09-Фев-2015 20:28 (спустя 2 года 5 месяцев)

[Q] 

Спасибо. Очень нужный и хороший фильм!!!
[Профиль]  [ЛС] 
Показать сообщения:    
Ответить на тему

Текущее время: Сегодня 16:27

Часовой пояс: GMT + 4



Вы не можете начинать темы
Вы не можете отвечать на сообщения
Вы не можете редактировать свои сообщения
Вы не можете удалять свои сообщения
Вы не можете голосовать в опросах
Вы не можете прикреплять файлы к сообщениям
Вы не можете скачивать файлы

▼ Вниз