ML
     
  Уважаемый Гость!
Вы можете поддержать проект и зарегистрироваться у наших партнеров - онлайн-стратегия MyLands. При регистрации в игре Вы получите код, который сможете активировать после регистрации на pirat.ca и получить 1000 дублонов.

Ваш код:
a01a592a88af5f9996a6d1baec61b18a1769954d
 
     

Чудеса (Ольга Дыховичная) [2012 г., документальный, SATRip]

Ответить на тему
 
Автор
Сообщение

Пост 28-Сен-2012 14:58

[Q] 

Olegarkh73

Корсар

Чудеса Производство: Россия
Жанр: документальный
Год выпуска: 2012 г.
Продолжительность: 00:51:57
Перевод: Не требуется
Режиссер: Ольга Дыховичная-Описание: Что такое чудо? Нечто сверхъестественное? Фильм рассказывает о явлениях, которые можно зафиксировать и даже исследовать современными методами, но невозможно объяснить.
Почему мироточат иконы? Что показывает анализ вещества, источаемого иконами, и как объяснить наличие в нем белка?
Туринская Плащаница – искусная мистификация или великая святыня? Почему химики, палеоботаники, антропологи, историки утверждают: Плащаница подлинная, а радиоуглеродный анализ показывает обратное? Каковы результаты дополнительных исследований? Что современная наука может сказать о Туринской Плащанице? Существуют ли несомненные доказательства ее подлинности? Как объяснить появление на ткани отпечатка тела?
Сила молитвы – действительно ли она творит чудеса? Как можно объяснить невероятные исцеления людей, за которых молились? И можно ли вообще объяснить с научной точки зрения силу молитвы, веры, любви?
Слишком многое в нашем мире не поддается научному объяснению. Например, само возникновение мира. Современная фундаментальная наука рассчитала почти весь процесс возникновения Вселенной, вплоть до 10 в минус 43 степени секунды после Большого Взрыва. Осталось выяснить, что произошло непосредственно в момент Взрыва, и почему это произошло. Для того, чтобы приблизиться к пониманию этого, создан Большой Адронный Коллайдер. Удастся ли ученым узнать, как был сотворен мир?
Десятилетиями биологи изучают живую клетку. И по многим параметрам уже достигли огромных результатов: научились репрограммировать клетки, внедрять в них искусственные компоненты и пр. Но создать живую клетку с нуля не удалось пока никому. Что за тайна заключена в обычной живой клетке? Почему ученые до сих пор не могут объяснить – как появилась жизнь? Не значит ли это, что жизнь сама по себе – самое великое чудо?
Это и многое другое в документальном фильме "Чудеса".-Качество видео: SATRip
Формат видео: AVI
Видео кодек: XviD
Аудио кодек: MP3
Видео: 720x384 (1.88:1), 25 fps, XviD build 50 ~1547 kbps avg, 0.22 bit/pixel
Аудио: 48 kHz, MPEG Layer 3, 2 ch, ~192.00 kbps avg
Cубтитры: отсутствуют
Формат : AVI
Формат/Информация : Audio Video Interleave
Размер файла : 650 Мбайт
Продолжительность : 51 м.
Общий поток : 1750 Кбит/сек
Программа кодирования : VirtualDubMod 1.5.10.3 | www.virtualdub-fr.org || (build 2550/release)
Библиотека кодирования : VirtualDubMod build 2550/release
Видео
Идентификатор : 0
Формат : MPEG-4 Visual
Профиль формата : Advanced [email protected]
Параметр BVOP формата : 1
Параметр QPel формата : Нет
Параметр GMC формата : Без точки перехода
Параметр матрицы формата : Default (H.263)
Идентификатор кодека : XVID
Идентификатор кодека/Подсказка : XviD
Продолжительность : 51 м.
Битрейт : 1548 Кбит/сек
Ширина : 720 пикселей
Высота : 384 пикселя
Соотношение сторон : 1,85:1
Частота кадров : 25,000 кадров/сек
Цветовое пространство : YUV
Субдискретизация насыщенности : 4:2:0
Битовая глубина : 8 бит
Тип развёртки : Прогрессивная
Метод сжатия : С потерями
Бит/(Пиксели*Кадры) : 0.224
Размер потока : 575 Мбайт (88%)
Библиотека кодирования : XviD 1.2.1 (UTC 2008-12-04)
Аудио
Идентификатор : 1
Формат : MPEG Audio
Версия формата : Version 1
Профиль формата : Layer 3
Идентификатор кодека : 55
Идентификатор кодека/Подсказка : MP3
Продолжительность : 51 м.
Вид битрейта : Постоянный
Битрейт : 192 Кбит/сек
Каналы : 2 канала
Частота : 48,0 КГц
Метод сжатия : С потерями
Размер потока : 71,3 Мбайт (11%)
Выравнивание : Соединение по промежуткам
Продолжительность промежутка : 40 мс. (1,00 видеокадр)
Время предзагрузки промежутка : 504 мс.
Библиотека кодирования : LAME3.98r
Настройки программы : -m s -V 4 -q 2 -lowpass 18.6 -b 192
Download / Скачать

Хотите скачать бесплатно? Зарегистрируйтесь на сайте (ссылка на регистрацию). Pirat.ca - самый быстрый торрент трекер в рунете!

Как скачивать  ·   Что такое торрент  ·   Рейтинг и ограничения

UcrusPazzo

7670

Пост 28-Сен-2012 15:31 (спустя 32 минуты)

[Q] 

Olegarkh73, большое спасибо за такую раздачу! Качаю, поддержу!

_________________
[Профиль]  [ЛС] 

Metalheart

Гроза морей

Пост 28-Сен-2012 21:48 (спустя 6 часов)

[Q] 


_________________
[Профиль]  [ЛС] 

Skala973

Корсар

Пост 03-Янв-2013 17:06 (спустя 3 месяца 4 дня)

[Q] 

Интересный фильм. Но только кажется католический подход какой-то к объяснению этих чудес просматривается.
[Профиль]  [ЛС] 
Показать сообщения:    
Ответить на тему

Текущее время: Сегодня 09:51

Часовой пояс: GMT + 4



Вы не можете начинать темы
Вы не можете отвечать на сообщения
Вы не можете редактировать свои сообщения
Вы не можете удалять свои сообщения
Вы не можете голосовать в опросах
Вы не можете прикреплять файлы к сообщениям
Вы не можете скачивать файлы

▼ Вниз