ML
     
  Уважаемый Гость!
Вы можете поддержать проект и зарегистрироваться у наших партнеров - онлайн-стратегия MyLands. При регистрации в игре Вы получите код, который сможете активировать после регистрации на pirat.ca и получить 1000 дублонов.

Ваш код:
a01a592a88af5f9996a6d1baec61b18a1769954d
 
     

Схождение Благодатного огня в Храме гроба Господня [2011 г., Документльный, SATRip]

Ответить на тему
 
Автор
Сообщение

Пост 13-Дек-2011 17:57

[Q] 

Степаныч

Схождение Благодатного огня в Храме гроба Господня
Год выпуска: 2011
Мировая премьера: 22 апреля 2011
Производство: Церемония из Иерусалима транслировалась многими телеканалами.
Жанр: Документльный
Продолжительность: 00:59:55
Описание: Ежегодно миллионы людей становятся свидетелями Чуда. В Великую Субботу накануне Воскресения Христового по молитвам православного Патриарха на Гроб Господний сходит Благодатный Огонь.
Иерусалимский патриарх Феофил один молится за закрытыми дверями Кувуклии - так по-гречески называется пещера, где был погребён Христос и откуда Воскрес, в обетование жизни вечной. Согласно преданию, тот год, когда огонь не сойдет с неба - станет последним в истории человечества.
Увидеть Чудо Блогодатного Огня стремится каждый христианин, поэтому со всего мира в Великую субботу к Храму Гроба Господня стекаются паломники, чтобы умыться его благодатным светом и получить Божье благословение.
Вы увидите уникальный обряд: все огни в Храме погашены, Патриарх снимает с себя облачение и проходит процедуру досмотра - полицейские старательно обыскивают его, а также Кувуклию, чтобы убедиться, что там нет ничего, способного вызвать воспламенения. В одном лишь хитоне Патриарх входит туда и, стоя на коленях, просит Господа послать на землю Благодатный Огонь.
Услышит ли его Всевышний? Пошлет ли свою милость и в нынешнем году? Сойдет ли в этот раз Небесный Огонь?
Источник/Качество: SATRip
Формат: AVI
Видео кодек: DivX
Аудио кодек: MP3
Видео: MPEG4, DivX 5, 704x512 (1.375), 25.000 fps, 1 501 Kbps (0.167 bit/pixel)
Аудио: MP3, 48.0 KHz, 2 ch, 128 Kbps, CBR
Формат : AVI
Формат/Информация : Audio Video Interleave
Размер файла : 702 Мбайт
Продолжительность : 59 м.
Общий поток : 1638 Кбит/сек
Программа кодирования : VirtualDubMod 1.5.10.2 (build 2540/release)
Библиотека кодирования : VirtualDubMod build 2540/release
Видео
Идентификатор : 0
Формат : MPEG-4 Visual
Параметр BVOP формата : 1
Параметр QPel формата : Нет
Параметр GMC формата : Без точки перехода
Параметр матрицы формата : Default (H.263)
Режим смешивания : Сжатый битовый поток
Идентификатор кодека : DX50
Идентификатор кодека/Подсказка : DivX 5
Продолжительность : 59 м.
Битрейт : 1501 Кбит/сек
Ширина : 704 пикс.
Высота : 512 пикс.
Соотношение сторон : 1,375
Частота кадров : 25,000 кадр/сек
Цветовое пространство : YUV
Подвыборка цветности : 4:2:0
Битовая глубина : 8 бит
Тип развёртки : Прогрессивная
Метод сжатия : С потерями
Бит/(Пиксели*Кадры) : 0.167
Размер потока : 643 Мбайт (92%)
Библиотека кодирования : DivX 6.8.5 (UTC 2009-08-20)
Аудио
Идентификатор : 1
Формат : MPEG Audio
Версия формата : Version 1
Профиль формата : Layer 3
Режим : Joint stereo
Расширение режима : MS Stereo
Идентификатор кодека : 55
Идентификатор кодека/Подсказка : MP3
Продолжительность : 59 м.
Вид битрейта : Постоянный
Битрейт : 128 Кбит/сек
Канал(ы) : 2 канала(ов)
Частота : 48,0 КГц
Метод сжатия : С потерями
Размер потока : 54,9 Мбайт (8%)
Выравнивание : Разделение по промежуткам
Продолжительность промежутка : 40 мс. (1,00 видеокадр)
Время предзагрузки промежутка : 500 ms



Download / Скачать

Хотите скачать бесплатно? Зарегистрируйтесь на сайте (ссылка на регистрацию). Pirat.ca - самый быстрый торрент трекер в рунете!

Как скачивать  ·   Что такое торрент  ·   Рейтинг и ограничения

FruTT

Корсар

2

Пост 29-Ноя-2012 22:32 (спустя 11 месяцев 16 дней)

[Q] 

Спасибо! Мир Иерусалиму!

_________________
Подпись отключена за нарушение правил форума
[Профиль]  [ЛС] 

Vetal-666-

Лоцман

Пост 02-Окт-2013 12:37 (спустя 10 месяцев 2 дня)

[Q] 

Откровения 13:13 ...и творит великие знамения, так что и огонь низводит с неба на землю перед людьми.
[Профиль]  [ЛС] 
Показать сообщения:    
Ответить на тему

Текущее время: Сегодня 09:47

Часовой пояс: GMT + 4



Вы не можете начинать темы
Вы не можете отвечать на сообщения
Вы не можете редактировать свои сообщения
Вы не можете удалять свои сообщения
Вы не можете голосовать в опросах
Вы не можете прикреплять файлы к сообщениям
Вы не можете скачивать файлы

▼ Вниз