ML
     
  Уважаемый Гость!
Вы можете поддержать проект и зарегистрироваться у наших партнеров - онлайн-стратегия MyLands. При регистрации в игре Вы получите код, который сможете активировать после регистрации на pirat.ca и получить 1000 дублонов.

Ваш код:
9cfe162481db953a6549f32179d7b3900b8b8643
 
     

Код антихриста, или тайна беззакония (Б. Швец) [2009 г., Документальный, SATRip]

Ответить на тему
 
Автор
Сообщение

Пост 01-Ноя-2011 18:20

[Q] 

Степаныч

Код антихриста, или тайна беззакония
Год выпуска: 2009
Производство: Украина
Жанр: Документальный
Продолжительность: 00:32:30
Режиссер: Б. Швец
Описание: Фильм в критически-жёсткой и яркой монтажной форме (с православных позиций) изобличает дьявольскую сущность голливудской киноиндустрии, а также кощунственного романа Дэна Брауна «Код да Винчи» и всей системы современных СМИ, растлевающей современное подрастающее поколение в разных странах мира (в том числе, в России и на Украине). Этим авторы вскрывают факты целенаправленной подготовки всего населения планеты Земля к приходу в мир глобального религиозно-политического диктатора. А именно антихриста, сына дьявола во плоти, который начнёт жестокое гонение на всех несогласных и (по пророчествам Священного Писания) подчинит своей кровавой тирании почти весь земной мир.
Доп. информация: Фильм на русском языке
Источник/Качество: CamRip
Формат: AVI
Видео кодек: XviD
Аудио кодек: MP3
Видео: MPEG4, XviD, 336x256 (4/3), 23.976 fps, 500 Kbps (0.243 bit/pixel)
Аудио: MP3, 44.1 KHz, 2 ch, 128 Kbps, CBR
Формат : AVI
Формат/Информация : Audio Video Interleave
Размер файла : 149 Мбайт
Продолжительность : 32 м.
Общий поток : 641 Кбит/сек
Видео
Идентификатор : 0
Формат : MPEG-4 Visual
Профиль формата : Advanced [email protected]
Параметр BVOP формата : 2
Параметр QPel формата : Нет
Параметр GMC формата : Без точки перехода
Параметр матрицы формата : Default (H.263)
Идентификатор кодека : XVID
Идентификатор кодека/Подсказка : XviD
Продолжительность : 32 м.
Битрейт : 500 Кбит/сек
Ширина : 336 пикс.
Высота : 256 пикс.
Соотношение сторон : 4:3
Частота кадров : 23,976 кадр/сек
Цветовое пространство : YUV
Подвыборка цветности : 4:2:0
Битовая глубина : 8 бит
Тип развёртки : Прогрессивная
Метод сжатия : С потерями
Бит/(Пиксели*Кадры) : 0.243
Размер потока : 116 Мбайт (78%)
Библиотека кодирования : XviD 1.2.1 (UTC 2008-12-04)
Аудио
Идентификатор : 1
Формат : MPEG Audio
Версия формата : Version 1
Профиль формата : Layer 3
Режим : Joint stereo
Расширение режима : MS Stereo
Идентификатор кодека : 55
Идентификатор кодека/Подсказка : MP3
Продолжительность : 32 м.
Вид битрейта : Постоянный
Битрейт : 128 Кбит/сек
Канал(ы) : 2 канала(ов)
Частота : 44,1 КГц
Метод сжатия : С потерями
Размер потока : 29,8 Мбайт (20%)
Выравнивание : Соединение по промежуткам
Продолжительность промежутка : 26 мс. (0,63 видеокадр)
Библиотека кодирования : LAME3.98.2


Download / Скачать

Хотите скачать бесплатно? Зарегистрируйтесь на сайте (ссылка на регистрацию). Pirat.ca - самый быстрый торрент трекер в рунете!

Как скачивать  ·   Что такое торрент  ·   Рейтинг и ограничения



Последний раз редактировалось: Степаныч (2011-11-07 10:30), всего редактировалось 1 раз

KOTORUNCYK

Юнга

Пост 11-Апр-2013 12:40 (спустя 1 год 5 месяцев)

[Q] 

[Профиль]  [ЛС] 

Фтещт

Корсар

61

Пост 10-Май-2013 17:23 (спустя 29 дней)

[Q] 

[Профиль]  [ЛС] 

Фтещт

Корсар

61

Пост 10-Май-2013 17:24 (спустя 33 секунды)

[Q] 

[Профиль]  [ЛС] 
Показать сообщения:    
Ответить на тему

Текущее время: Сегодня 06:03

Часовой пояс: GMT + 4



Вы не можете начинать темы
Вы не можете отвечать на сообщения
Вы не можете редактировать свои сообщения
Вы не можете удалять свои сообщения
Вы не можете голосовать в опросах
Вы не можете прикреплять файлы к сообщениям
Вы не можете скачивать файлы

▼ Вниз