ML
     
  Уважаемый Гость!
Вы можете поддержать проект и зарегистрироваться у наших партнеров - онлайн-стратегия MyLands. При регистрации в игре Вы получите код, который сможете активировать после регистрации на pirat.ca и получить 1000 дублонов.

Ваш код:
ea554e7ed3eacceeae87a8b30a9de3f086c18a84
 
     

Прикладная ихтиология: Окунь. / Серии: 1 (Стрим-ТВ) [2013 г., Документальный, DVB]

Ответить на тему
 
Автор
Сообщение

Пост 30-Янв-2014 23:46

[Q] 

mersicc

Корсар

-Прикладная ихтиология: Окунь.-- Производство: Россия
Жанр: Документальный
Год выпуска: 2013 г.
Продолжительность: 00:25:50
Перевод: Не требуется
Оригинальный аудиопоток: русский
Режиссер: Стрим-ТВ-В ролях: Кирилл Кузищев, Дмитрий Бугорский-Описание: В передаче рассказывают, о повидении окуня в Водоёмах.. и их отличии.-Качество видео: DVB
Контейнер: MPEG-2
Видео кодек: MPEG2
Аудио кодек: MPEG
Видео: MPEG2 Video 720x576 (4:3) 25fps 2 467 Kbps
Аудио: MPEG Audio 48000Hz stereo 192kbps
Cубтитры: отсутствуют
General
Complete name : D:\Прикладная ихтиология-2013-12-29.mpg
Format : MPEG-PS
File size : 502 MiB
Duration : 25mn 50s
Overall bit rate mode : Variable
Overall bit rate : 2 713 Kbps
Writing library : encoded by TMPGEnc MPEG Editor 2.0 Version. 2.2.8.177
Video
ID : 224 (0xE0)
Format : MPEG Video
Format version : Version 2
Format profile : [email protected]
Format settings, BVOP : No
Format settings, Matrix : Custom
Format settings, GOP : Variable
Duration : 25mn 50s
Bit rate mode : Variable
Bit rate : 2 467 Kbps
Maximum bit rate : 10 000 Kbps
Width : 720 pixels
Height : 576 pixels
Display aspect ratio : 4:3
Frame rate : 25.000 fps
Standard : PAL
Color space : YUV
Chroma subsampling : 4:2:0
Bit depth : 8 bits
Scan type : Interlaced
Scan order : Top Field First
Compression mode : Lossy
Bits/(Pixel*Frame) : 0.238
Time code of first frame : 00:00:00:00
Time code source : Group of pictures header
Stream size : 456 MiB (91%)
Writing library : TMPGEnc MPEG Editor 2.2.8.177
Matrix coefficients : BT.601
Audio
ID : 192 (0xC0)
Format : MPEG Audio
Format version : Version 1
Format profile : Layer 2
Duration : 25mn 50s
Bit rate mode : Constant
Bit rate : 192 Kbps
Channel count : 2 channels
Sampling rate : 48.0 KHz
Compression mode : Lossy
Stream size : 35.5 MiB (7%)
Download / Скачать

Хотите скачать бесплатно? Зарегистрируйтесь на сайте (ссылка на регистрацию). Pirat.ca - самый быстрый торрент трекер в рунете!

Как скачивать  ·   Что такое торрент  ·   Рейтинг и ограничения

stbv

Морской Волк

Пост 31-Янв-2014 21:19 (спустя 21 час)

[Q] 

Раздавать будем или как? И где сид??????????
[Профиль]  [ЛС] 

mersicc ®

Корсар

1614

Пост 31-Янв-2014 23:03 (спустя 1 час 43 минуты)

[Q] 

stbv, Угу только с работы приехал..Без рук без Ног. co
Добавлено спустя 1 час 7 минут 54 секунды:
Вообще скажу за эту передачю..не льзя её воспринимать..так бла бла бла..в реале слушать надо внимательно.

_________________
[Профиль]  [ЛС] 
Показать сообщения:    
Ответить на тему

Текущее время: Сегодня 12:10

Часовой пояс: GMT + 4



Вы не можете начинать темы
Вы не можете отвечать на сообщения
Вы не можете редактировать свои сообщения
Вы не можете удалять свои сообщения
Вы не можете голосовать в опросах
Вы не можете прикреплять файлы к сообщениям
Вы не можете скачивать файлы

▼ Вниз