ML
     
  Уважаемый Гость!
Вы можете поддержать проект и зарегистрироваться у наших партнеров - онлайн-стратегия MyLands. При регистрации в игре Вы получите код, который сможете активировать после регистрации на pirat.ca и получить 1000 дублонов.

Ваш код:
8dcb839cf1b47e56d6dc42d17f26b3e4822e9aee
 
     

Рыбалка с Нормундом Грабовскисом. Голец в Швеции (Стрим ТВ) [2014 г., Документальный, рыбалка, DVB]

Ответить на тему
 
Автор
Сообщение

Пост 03-Фев-2014 15:04

[Q] 

mersicc

Корсар

-Рыбалка с Нормундом Грабовскисом. Голец в Швеции-- Производство: Россия
Жанр: Документальный, рыбалка
Год выпуска: 2014 г.
Продолжительность: 00:25:21
Перевод: Не требуется
Оригинальный аудиопоток: русский
Режиссер: Стрим ТВ-Описание: Ужение гольца от профессионального рыбака Нормунда Грабовскиса.-Качество видео: DVB
Контейнер: MPEG-2
Видео кодек: MPEG2
Аудио кодек: MPEG
Видео: MPEG2 Video 720x576 (4:3) 25fps 2 756 Kbps
Аудио: MPEG Audio 48000Hz stereo 192kbps
Cубтитры: отсутствуют
General
Complete name : D:\Рыбалка с Нормундом Грабовскисом 2014-01.mpg
Format : MPEG-PS
File size : 545 MiB
Duration : 25mn 20s
Overall bit rate mode : Variable
Overall bit rate : 3 008 Kbps
Video
ID : 224 (0xE0)
Format : MPEG Video
Format version : Version 2
Format profile : [email protected]
Format settings, BVOP : No
Format settings, Matrix : Custom
Format settings, GOP : M=3, N=12
Duration : 25mn 20s
Bit rate mode : Variable
Bit rate : 2 756 Kbps
Maximum bit rate : 10 000 Kbps
Width : 720 pixels
Height : 576 pixels
Display aspect ratio : 4:3
Frame rate : 25.000 fps
Standard : PAL
Color space : YUV
Chroma subsampling : 4:2:0
Bit depth : 8 bits
Scan type : Interlaced
Scan order : Top Field First
Compression mode : Lossy
Bits/(Pixel*Frame) : 0.266
Time code of first frame : 00:00:00:00
Time code source : Group of pictures header
Stream size : 500 MiB (92%)
Matrix coefficients : BT.601
Audio
ID : 192 (0xC0)
Format : MPEG Audio
Format version : Version 1
Format profile : Layer 2
Duration : 25mn 20s
Bit rate mode : Constant
Bit rate : 192 Kbps
Channel count : 2 channels
Sampling rate : 48.0 KHz
Compression mode : Lossy
Stream size : 34.8 MiB (6%)
Download / Скачать

Хотите скачать бесплатно? Зарегистрируйтесь на сайте (ссылка на регистрацию). Pirat.ca - самый быстрый торрент трекер в рунете!

Как скачивать  ·   Что такое торрент  ·   Рейтинг и ограничения



Последний раз редактировалось: mersicc (2014-02-03 18:21), всего редактировалось 1 раз

mersicc ®

Корсар

1614

Пост 04-Фев-2014 00:14 (спустя 9 часов)

[Q] 

Он 2 чемпион мира.. Што ни кто не качает советы тумного человека..

_________________

[Профиль]  [ЛС] 

Seva78

1518

Пост 04-Фев-2014 00:58 (спустя 44 минуты)

[Q] 

mersicc, Его советы в этой серии действуют на территории Швеции,туда вроде не собираюсь,а на наши земли не распространяется,у них даже рыба на поплавок не очень то клюёт,подавай ей "заморочки" всякие шведские:)) Рыбалка конечно получилось у него хорошая,у нас таких водоёмов нет с такой прозрачной водой,да ещё чтобы её можно было пить прям с реки.За труды раздающему как положено в трюме Лови бочку

_________________
[Профиль]  [ЛС] 

mersicc ®

Корсар

1614

Пост 05-Фев-2014 13:57 (спустя 1 день 12 часов)

[Q] 

Seva78, (Его советы в этой серии действуют на территории Швеции)
Я тоже вроде туда не собираюсь так отдахнуть.. глянуть.. просто.. передачю можно, не грузя мозг..

_________________

[Профиль]  [ЛС] 
Показать сообщения:    
Ответить на тему

Текущее время: Сегодня 04:16

Часовой пояс: GMT + 4



Вы не можете начинать темы
Вы не можете отвечать на сообщения
Вы не можете редактировать свои сообщения
Вы не можете удалять свои сообщения
Вы не можете голосовать в опросах
Вы не можете прикреплять файлы к сообщениям
Вы не можете скачивать файлы

▼ Вниз