ML
     
  Уважаемый Гость!
Вы можете поддержать проект и зарегистрироваться у наших партнеров - онлайн-стратегия MyLands. При регистрации в игре Вы получите код, который сможете активировать после регистрации на pirat.ca и получить 1000 дублонов.

Ваш код:
ea554e7ed3eacceeae87a8b30a9de3f086c18a84
 
     

Наша рыбалка. Хищник неспортивно / Серии 1-4 (Стрим-ТВ) [2012 г., Рыбалка, SATRip]

Ответить на тему
 
Автор
Сообщение

Пост 05-Фев-2014 15:16

[Q] 

mersicc

Корсар

-Наша рыбалка. Хищник неспортивно.-- Производство: Украина
Жанр: Рыбалка
Год выпуска: 2012 г.
Продолжительность: 4 х 00:26:00
Перевод: Не требуется
Оригинальный аудиопоток: русский
Режиссер: Стрим-ТВ-Описание: Документальный фильм о незаслуженно забытых, но очень эффективных методах ловли хищной рыбы - на живца. Балабайка, шмат, поставуша, жерлица, резинка, простая поплавочная удочка, - все это при правильном подходе может стать прекрасным инструментом для удачной рыбалки.
Информация из блога Бориса Саксонова:
За последний год произведено много досъемок и этот фильм выйдет 4-мя частями по 26 минут.-Качество видео: SATRip
Контейнер: AVI
Видео кодек: XviD
Аудио кодек: MP3
Видео: 720x536 (1.34:1), 25 fps, XviD build 50 ~1594 kbps avg, 0.17 bit/pixel
Аудио: 48 kHz, MPEG Layer 3, 2 ch, ~128.00 kbps avg
Cубтитры: отсутствуют
General
Complete name : D:\Хищник неспортивно\Хищник неспортивно. Эпизод 2.avi
Format : AVI
Format/Info : Audio Video Interleave
File size : 322 MiB
Duration : 25mn 59s
Overall bit rate : 1 733 Kbps
Writing application : VirtualDubMod 1.5.10.3 | www.virtualdub-fr.org || (build 2550/release)
Writing library : VirtualDubMod build 2550/release
Video
ID : 0
Format : MPEG-4 Visual
Format profile : Advanced [email protected]
Format settings, BVOP : 1
Format settings, QPel : No
Format settings, GMC : No warppoints
Format settings, Matrix : Default (MPEG)
Codec ID : XVID
Codec ID/Hint : XviD
Duration : 25mn 59s
Bit rate : 1 595 Kbps
Width : 720 pixels
Height : 536 pixels
Display aspect ratio : 4:3
Frame rate : 25.000 fps
Color space : YUV
Chroma subsampling : 4:2:0
Bit depth : 8 bits
Scan type : Progressive
Compression mode : Lossy
Bits/(Pixel*Frame) : 0.165
Stream size : 296 MiB (92%)
Writing library : XviD 1.2.1 (UTC 2008-12-04)
Audio
ID : 1
Format : MPEG Audio
Format version : Version 1
Format profile : Layer 3
Codec ID : 55
Codec ID/Hint : MP3
Duration : 25mn 59s
Bit rate mode : Constant
Bit rate : 128 Kbps
Channel count : 2 channels
Sampling rate : 48.0 KHz
Compression mode : Lossy
Stream size : 23.8 MiB (7%)
Alignment : Aligned on interleaves
Interleave, duration : 40 ms (1.00 video frame)
Interleave, preload duration : 504 ms
Writing library : L3.99r
Encoding settings : -m s -V 4 -q 2 -lowpass 17 -b 128
Название частей будет следущим:
Часть 1,2 – Поставуша и балабайка.
Часть 3 – Ловля на “шмат” и поплавочную удочку.
Часть 4 – “Резинка” (ловля на донку с резиновым аммортизатором.
Окончательное название фильма – “Хищник неспортивно”.
Download / Скачать

Хотите скачать бесплатно? Зарегистрируйтесь на сайте (ссылка на регистрацию). Pirat.ca - самый быстрый торрент трекер в рунете!

Как скачивать  ·   Что такое торрент  ·   Рейтинг и ограничения



Последний раз редактировалось: mersicc (2014-02-06 17:32), всего редактировалось 1 раз
Показать сообщения:    
Ответить на тему

Текущее время: Сегодня 12:12

Часовой пояс: GMT + 4



Вы не можете начинать темы
Вы не можете отвечать на сообщения
Вы не можете редактировать свои сообщения
Вы не можете удалять свои сообщения
Вы не можете голосовать в опросах
Вы не можете прикреплять файлы к сообщениям
Вы не можете скачивать файлы

▼ Вниз