ML
     
  Уважаемый Гость!
Вы можете поддержать проект и зарегистрироваться у наших партнеров - онлайн-стратегия MyLands. При регистрации в игре Вы получите код, который сможете активировать после регистрации на pirat.ca и получить 1000 дублонов.

Ваш код:
db0e0ad91548759ffeb9bb88bed405e1a4b3c165
 
     

Диалоги о рыбалке (60 передач) [2008 г., Документальный, TVRip]

Ответить на тему
 
Автор
Сообщение

Пост 24-Янв-2012 23:33

[Q] 

Степаныч

Диалоги о рыбалке (60 передач)
Год выпуска: 2008
Страна: Россия
Жанр: Документальный
Продолжительность серии:00:25:00
Качество: TVRip
Формат: AVI
Видео кодек: DivX
Аудио кодек: MP3
Видео: MPEG4, DivX 5, 720x480,720х544, (1.500), 25.000 fps, 1 500 Kbps (0.174 bit/pixel)
Аудио: MP3, 24.0 KHz, 2 ch, 48.0 Kbps, CBR
Содержание: Народный проект - программа, рассказывающая о самом массовом увлечении человечества - рыбалке. Сюжеты программы сняты в различных точках России и зарубежья и раскрывают такие темы, как, в первую очередь - общение человека с природой, умение видеть прекрасное вокруг себя, возможность открытия для себя тайн дикой природы, ну и естественно - способы ужения рыбы, виды рыб, всевозможные снасти, наживки и прикормки. Особое внимание уделяется описанию водоемов, способам ловли и выбору снастей.
№01 (Шемая)
№02 (Бычок)
№03 (Пиленгас.Кубань)
№04 (Кольский полуостров.Лосось,щука.)
№05 (Сазан,карп.Кубань)
№06 (Астраханская ДЕЛЬТА. Сом,жерех.)
№07 (Троллинг)
№08 (Ловля лещя в Полтаве)
№09 (Городская рыбалка,Камчатка)
№10 (Камбала, Камчатка.)
№11 (Морской ленек)
№12 (Микижа)
№13 (Хариус на спининг.)
№14 (Хариус на удочку.)
№15 (Ловля сома на квок)
№16 (Налим.)
№17 (Таймень.)
№18 (Дельтаро охота)
№19 (Ловля рыбы нахлыстом. Осень)
№20 (Рыбалка на Десне. Зима)
№21 (Ловля щуки)
№22 (Лещ, глухая оснастка)
№23 (Окунь, Юрьевец)
№24 (Карась.Кубань)
№25 (Рыбалка на Средней Волге. Зима)
№26 (Таймень, хариус, ленок)
№27 (Сибирь. Таймень)
№28 (Уклейка. Зима)
№29 (Городская рыбалка)
№30 (Карась)
№31 (Мошка)
№32 (Волга-3)
№33 (Щука. Казахстан)
№36 (Окунь)
№38 (Кубань.Линь.)
№41 (г.Решма .Динамо)
№43 (Поплавок)
№49 (Раки.)
№52 (Голец)
№53 (Тарань.Кубань)
№54 (Вобла)
№55 (Кутум)
№64 (Плотва осень)
№65 (Кижуч)
№70 (Рыбалка в Казахстане)
№79 (Щука) , Спининговые приманки
№82 (Ловля жереха) Жерех,Окунь, Судак на Чебоксарском вдхр
№87 (Камчатка. Голец)
№90 (Плотва)
№91 (Окунь. Зима)
№92 (Ахтуба. Окунь. Зима)
№93 (Ахтуба. Плотва Зима)
№95 (Дельта Волги. Вобла. Зима)
№96 (Навага. Зима)
№98 (Камчатка, бычок)
№102 (Палтус, Камчатка)
№105 (Рыбалка на штеккер. Зима)
№106 (Спортивная рыбалка. Зима)
№109 (Окунь и щука. Зима)
№112 (Глухозимье. Зима)
Видео файлы одинаковые по данным кроме серий: 2,5,8,22,31,33,36,41
Формат : AVI
Формат/Информация : Audio Video Interleave
Размер файла : 283 Мбайт
Продолжительность : 25 м.
Общий поток : 1558 Кбит/сек
Библиотека кодирования : VirtualDub build 15654/release
Видео
Идентификатор : 0
Формат : MPEG-4 Visual
Параметр BVOP формата : Нет
Параметр QPel формата : Нет
Параметр GMC формата : Без точки перехода
Параметр матрицы формата : Default (H.263)
Идентификатор кодека : DX50
Идентификатор кодека/Подсказка : DivX 5
Продолжительность : 25 м.
Битрейт : 1500 Кбит/сек
Ширина : 720 пикс.
Высота : 480 пикс.
Соотношение сторон : 3:2
Частота кадров : 25,000 кадр/сек
Стандарт вещания : NTSC
Цветовое пространство : YUV
Подвыборка цветности : 4:2:0
Битовая глубина : 8 бит
Тип развёртки : Прогрессивная
Метод сжатия : С потерями
Бит/(Пиксели*Кадры) : 0.174
Размер потока : 272 Мбайт (96%)
Библиотека кодирования : DivX 5.1.1 (Maupiti) (UTC 2003-11-19)
Аудио
Идентификатор : 1
Формат : MPEG Audio
Версия формата : Version 2
Профиль формата : Layer 3
Режим : Joint stereo
Расширение режима : Intensity Stereo + MS Stereo
Идентификатор кодека : 55
Идентификатор кодека/Подсказка : MP3
Продолжительность : 25 м.
Вид битрейта : Постоянный
Битрейт : 48,0 Кбит/сек
Канал(ы) : 2 канала(ов)
Частота : 24,0 КГц
Метод сжатия : С потерями
Размер потока : 8,71 Мбайт (3%)
Выравнивание : Разделение по промежуткам
Продолжительность промежутка : 40 мс. (1,00 видеокадр)
Время предзагрузки промежутка : 441 ms
Медиа инфо серий : 2,5,8,22,31,33,36,41
Формат : AVI
Формат/Информация : Audio Video Interleave
Размер файла : 373 Мбайт
Продолжительность : 25 м.
Общий поток : 2054 Кбит/сек
Библиотека кодирования : AVI OpenDML FlasKMPEG plugin release
Видео
Идентификатор : 0
Формат : MPEG-4 Visual
Параметр BVOP формата : Нет
Параметр QPel формата : Нет
Параметр GMC формата : Без точки перехода
Параметр матрицы формата : Default (H.263)
Идентификатор кодека : DX50
Идентификатор кодека/Подсказка : DivX 5
Продолжительность : 25 м.
Битрейт : 2000 Кбит/сек
Ширина : 720 пикс.
Высота : 544 пикс.
Соотношение сторон : 4:3
Частота кадров : 25,000 кадр/сек
Цветовое пространство : YUV
Подвыборка цветности : 4:2:0
Битовая глубина : 8 бит
Тип развёртки : Прогрессивная
Метод сжатия : С потерями
Бит/(Пиксели*Кадры) : 0.204
Размер потока : 363 Мбайт (97%)
Библиотека кодирования : DivX 5.1.1 (Maupiti) (UTC 2003-11-19)
Аудио
Идентификатор : 1
Формат : MPEG Audio
Версия формата : Version 1
Профиль формата : Layer 3
Идентификатор кодека : 55
Идентификатор кодека/Подсказка : MP3
Продолжительность : 25 м.
Вид битрейта : Постоянный
Битрейт : 48,0 Кбит/сек
Канал(ы) : 1 канал
Частота : 48,0 КГц
Метод сжатия : С потерями
Размер потока : 8,72 Мбайт (2%)
Выравнивание : Разделение по промежуткам
Продолжительность промежутка : 200 мс. (5,00 видеокадров)
Download / Скачать

Хотите скачать бесплатно? Зарегистрируйтесь на сайте (ссылка на регистрацию). Pirat.ca - самый быстрый торрент трекер в рунете!

Как скачивать  ·   Что такое торрент  ·   Рейтинг и ограничения

Степаныч ®

864

Пост 30-Янв-2012 20:37 (спустя 5 дней)

[Q] 

Блин раздал уже 25 гб рыбалки но ни кто не скачал....
Извините но провайдер гадюка больше скорости не дает...
раздаю 24/7

_________________
орфография как кунг-фу, истинный мастер не использует без надобности
[Профиль]  [ЛС] 

me14

999

Пост 17-Мар-2012 21:25 (спустя 1 месяц 18 дней)

[Q] 


_________________
Если вы все еще не забанены - это не ваша заслуга, а модераторская недоработка.
[Профиль]  [ЛС] 

kasska

Морской Волк

Пост 03-Окт-2013 18:34 (спустя 1 год 6 месяцев)

[Q] 

встаньте кто нибудь на раздачу , за ранее спасибо =)
[Профиль]  [ЛС] 

mersicc

Корсар

1614

Пост 12-Фев-2014 04:57 (спустя 4 месяца 8 дней)

[Q] 

Встал качай на здаровье!

_________________

[Профиль]  [ЛС] 
Показать сообщения:    
Ответить на тему

Текущее время: Сегодня 08:10

Часовой пояс: GMT + 4



Вы не можете начинать темы
Вы не можете отвечать на сообщения
Вы не можете редактировать свои сообщения
Вы не можете удалять свои сообщения
Вы не можете голосовать в опросах
Вы не можете прикреплять файлы к сообщениям
Вы не можете скачивать файлы

▼ Вниз