ML
     
  Уважаемый Гость!
Вы можете поддержать проект и зарегистрироваться у наших партнеров - онлайн-стратегия MyLands. При регистрации в игре Вы получите код, который сможете активировать после регистрации на pirat.ca и получить 1000 дублонов.

Ваш код:
500cb7bd8d2cec9a8aba647a87ce41c4b76f06bd
 
     

Золотая коллекция мультиков. Выпуск 7 / Gold Cartoons (Чак Джонс / Chuck Jones) [1941-1948, анимация ,DVDRip] MVO + Original

Ответить на тему
 
Автор
Сообщение

Пост 27-Сен-2012 20:54

[Q] 

kugesan

Золотая коллекция мультиковGold Cartoons Выпуск 7
Год выпуска: 1941-1948
Страна: США
Жанр: анимация
Продолжительность: 01:45:59
Кол-во серий: 14
Перевод: Профессиональный (многоголосый)
Оригинальный аудиопоток: английский
Субтитры: нет

Режиссер:Чак Джонс / Chuck Jones
Описание: Сборник мультфильмов от студии Warner Bros

Качество: DVDRip
Видео кодек: XviD
Видео: MPEG-4 Visual at 1919 Кбит/сек, 720 x 544 (1.324) at 25.000 fps
Аудио 1: AC-3 at 192 Кбит/сек, 2 канала(ов), 48,0 КГц Русский
Аудио 2: AC-3 at 192 Кбит/сек, 2 канала(ов), 48,0 КГц Английский


01 - Милые сердцу напевы / Coo coo nut grove (28 November 1936)
02 - Селезень Даффи в Голливуде / Daffy Duck In Hollywood (3 December 1938)
03 - Голливуд “отдыхает / Hollywood steps out (24 May 1941)
04 - Чего готовим, Док? / What's cookin doc? (8 January 1944)
05 - Даффи в Голливуде / Hollywood Daffy (22 June 1946)
06 - Певцы, Доводящие до обморочного состояния / Swooner crooner (6 May 1944)
07 - Хитрый, ловкий кролик / Slick hare (1 November 1947)
08 - Черепаха побеждает кролика / Tortoise beats hare (15 March 1941)
09 - Кролик берет реванш / Tortoise wins by a hare (20 February 1943)
10 - Кроличий пробег / Rabbit transit (10 May 1947)
11 - Багз Банни спасает кондора / Bugs Bunny gets the boid (11 July 1942)
12 - Старый, серый кролик / Old grey hare (28 October 1944)
13 - Бакз Банни снова на коне / Bugs Bunny rides again (12 June 1948)
14 - Кролик – сущая сатана / Haredevil hare (24 July 1948)

Код:
Общее
Полное имя                               : \\Keenetic_giga\disk_a1\transmission\Торро\multiki\Золотая Коллекция Мультиков\Vipusk.7\Vipusk.7\Zolotaja.kollekcija.mul'tikov.Vypusk.7.2003.XviD.DVDRip.avi
Формат                                   : AVI
Формат/Информация                        : Audio Video Interleave
Размер файла                             : 1,72 Гбайт
Продолжительность                        : 1 ч. 45 м.
Общий поток                              : 2320 Кбит/сек
Видео
Идентификатор                            : 0
Формат                                   : MPEG-4 Visual
Профиль формата                          : [email protected]
Параметр BVOP формата                    : Нет
Параметр QPel формата                    : Нет
Параметр GMC формата                     : Без точки перехода
Параметр матрицы формата                 : Default (H.263)
Идентификатор кодека                     : XVID
Идентификатор кодека/Подсказка           : XviD
Продолжительность                        : 1 ч. 45 м.
Продолжительность оригинала              : 1 ч. 45 м.
Битрейт                                  : 1919 Кбит/сек
Ширина                                   : 720 пикселей
Высота                                   : 544 пикселя
Соотношение сторон                       : 4:3
Частота кадров                           : 25,000 кадров/сек
Цветовое пространство                    : YUV
Субдискретизация насыщенности            : 4:2:0
Битовая глубина                          : 8 бит
Тип развёртки                            : Прогрессивная
Метод сжатия                             : С потерями
Бит/(Пиксели*Кадры)                      : 0.196
Размер потока                            : 1,42 Гбайт (83%)
Библиотека кодирования                   : XviD 1.1.2 (UTC 2006-11-01)
Аудио #1
Идентификатор                            : 1
Формат                                   : AC-3
Формат/Информация                        : Audio Coding 3
Расширение режима                        : CM (complete main)
Параметр Endianness формата              : Big
Идентификатор кодека                     : 2000
Продолжительность                        : 1 ч. 45 м.
Вид битрейта                             : Постоянный
Битрейт                                  : 192 Кбит/сек
Каналы                                   : 2 канала
Расположение каналов                     : Front: L R
Частота                                  : 48,0 КГц
Битовая глубина                          : 16 бит
Метод сжатия                             : С потерями
Размер потока                            : 146 Мбайт (8%)
Выравнивание                             : Соединение по промежуткам
Продолжительность промежутка             : 32  мс. (0,80 видеокадр)
Время предзагрузки промежутка            : 1312  мс.
Аудио #2
Идентификатор                            : 2
Формат                                   : AC-3
Формат/Информация                        : Audio Coding 3
Расширение режима                        : CM (complete main)
Параметр Endianness формата              : Big
Идентификатор кодека                     : 2000
Продолжительность                        : 1 ч. 45 м.
Вид битрейта                             : Постоянный
Битрейт                                  : 192 Кбит/сек
Каналы                                   : 2 канала
Расположение каналов                     : Front: L R
Частота                                  : 48,0 КГц
Битовая глубина                          : 16 бит
Метод сжатия                             : С потерями
Размер потока                            : 146 Мбайт (8%)
Выравнивание                             : Соединение по промежуткам
Продолжительность промежутка             : 32  мс. (0,80 видеокадр)
Время предзагрузки промежутка            : 1312  мс.
-"Золотая коллекция мультиков / Gold Cartoons"
на треке Pirat.ca
-
Download / Скачать

Хотите скачать бесплатно? Зарегистрируйтесь на сайте (ссылка на регистрацию). Pirat.ca - самый быстрый торрент трекер в рунете!

Как скачивать  ·   Что такое торрент  ·   Рейтинг и ограничения



Последний раз редактировалось: kugesan (2013-11-21 07:46), всего редактировалось 6 раз(а)

Пост 27-Сен-2012 22:40 (спустя 1 час 45 минут)

Топик был перенесен из форума Мультфильмы (Трюм) в форум Мультфильмы

erchine
 

CHARLI2236

1094

Пост 21-Ноя-2013 11:34 (спустя 1 год 1 месяц)

[Q] 

подключусь AntiZip 37

_________________
[Профиль]  [ЛС] 
Показать сообщения:    
Ответить на тему

Текущее время: Сегодня 01:50

Часовой пояс: GMT + 4



Вы не можете начинать темы
Вы не можете отвечать на сообщения
Вы не можете редактировать свои сообщения
Вы не можете удалять свои сообщения
Вы не можете голосовать в опросах
Вы не можете прикреплять файлы к сообщениям
Вы не можете скачивать файлы

▼ Вниз