ML
     
  Уважаемый Гость!
Вы можете поддержать проект и зарегистрироваться у наших партнеров - онлайн-стратегия MyLands. При регистрации в игре Вы получите код, который сможете активировать после регистрации на pirat.ca и получить 1000 дублонов.

Ваш код:
ea554e7ed3eacceeae87a8b30a9de3f086c18a84
 
     

Золотая коллекция мультиков. Выпуск 8 / Gold Cartoons (Чак Джонс / Chuck Jones ) [1931-1942, анимация ,DVDRip] MVO + Original

Ответить на тему
 
Автор
Сообщение

Пост 27-Сен-2012 21:03

[Q] 

kugesan

Золотая коллекция мультиковGold Cartoons Выпуск 8
Год выпуска: 1931-1942
Страна: США
Жанр: анимация
Продолжительность: 01:43:02
Кол-во серий: 14
Перевод: Профессиональный (многоголосый)
Оригинальный аудиопоток: английский
Субтитры: нет

Режиссер:Чак Джонс / Chuck Jones
Описание: Сборник мультфильмов от студии Warner Bros

Качество: DVDRip
Видео кодек: XviD
Видео: MPEG-4 Visual at 1918 Кбит/сек, 720 x 544 (1.324) at 25.000 fps
Аудио 1: AC-3 at 192 Кбит/сек, 2 канала(ов), 48,0 КГц Русский
Аудио 2: AC-3 at 192 Кбит/сек, 2 канала(ов), 48,0 КГц Английский


01 - Ты сам не знаешь, что творишь / You don't know what you're doin'! (21 October 1931)
02 - Купи Джи / Coopy Geer (16 April 1932)
03 - Трое – уже компания / Three's a crowd (12 Oktober 1932)
04 - Веселый оркестр / We're in the money (26 August 1933)
05 - Отель “Медовый месяц” / Honeymoon hotel (17 February 1934)
06 - Девушка в красном / The ledy in red (9 July1935)
07 - Парад пингвинов / The penguin parade (11 August 1938)
08 - Волшебная комната / Prest-o change-o (25 March 1939)
09 - Охота на кролика – это страшно / Hare-um scare-um (12 August 1939)
10 - Скрытая камера Элмера / Elmer's candid camera (2 March 1940)
11 - Домашний кролик Элмера / Elmer's pet rabbit (4 January 1941)
12 - Хиавату охотится на кролика / Hiawatha's rabbit hunt (7 June 1941)
13 - Придержите Льва / Hold the lion? please (13 June 1942)
14 - Дерзкий кролик / Fresh hare (22 August 1942)

Код:
Общее
Полное имя                               : \\Keenetic_giga\disk_a1\transmission\Торро\multiki\Золотая Коллекция Мультиков\Vipusk.8\Vipusk.8\Zolotaja.kollekcija.mul'tikov.Vypusk.8.2003.XviD.DVDRip.avi
Формат                                   : AVI
Формат/Информация                        : Audio Video Interleave
Размер файла                             : 1,67 Гбайт
Продолжительность                        : 1 ч. 43 м.
Общий поток                              : 2319 Кбит/сек
Видео
Идентификатор                            : 0
Формат                                   : MPEG-4 Visual
Профиль формата                          : [email protected]
Параметр BVOP формата                    : Нет
Параметр QPel формата                    : Нет
Параметр GMC формата                     : Без точки перехода
Параметр матрицы формата                 : Default (H.263)
Идентификатор кодека                     : XVID
Идентификатор кодека/Подсказка           : XviD
Продолжительность                        : 1 ч. 43 м.
Продолжительность оригинала              : 1 ч. 43 м.
Битрейт                                  : 1918 Кбит/сек
Ширина                                   : 720 пикселей
Высота                                   : 544 пикселя
Соотношение сторон                       : 4:3
Частота кадров                           : 25,000 кадров/сек
Цветовое пространство                    : YUV
Субдискретизация насыщенности            : 4:2:0
Битовая глубина                          : 8 бит
Тип развёртки                            : Прогрессивная
Метод сжатия                             : С потерями
Бит/(Пиксели*Кадры)                      : 0.196
Размер потока                            : 1,38 Гбайт (83%)
Библиотека кодирования                   : XviD 1.1.2 (UTC 2006-11-01)
Аудио #1
Идентификатор                            : 1
Формат                                   : AC-3
Формат/Информация                        : Audio Coding 3
Расширение режима                        : CM (complete main)
Параметр Endianness формата              : Big
Идентификатор кодека                     : 2000
Продолжительность                        : 1 ч. 43 м.
Вид битрейта                             : Постоянный
Битрейт                                  : 192 Кбит/сек
Каналы                                   : 2 канала
Расположение каналов                     : Front: L R
Частота                                  : 48,0 КГц
Битовая глубина                          : 16 бит
Метод сжатия                             : С потерями
Размер потока                            : 141 Мбайт (8%)
Выравнивание                             : Соединение по промежуткам
Продолжительность промежутка             : 32  мс. (0,80 видеокадр)
Время предзагрузки промежутка            : 1664  мс.
Аудио #2
Идентификатор                            : 2
Формат                                   : AC-3
Формат/Информация                        : Audio Coding 3
Расширение режима                        : CM (complete main)
Параметр Endianness формата              : Big
Идентификатор кодека                     : 2000
Продолжительность                        : 1 ч. 43 м.
Вид битрейта                             : Постоянный
Битрейт                                  : 192 Кбит/сек
Каналы                                   : 2 канала
Расположение каналов                     : Front: L R
Частота                                  : 48,0 КГц
Битовая глубина                          : 16 бит
Метод сжатия                             : С потерями
Размер потока                            : 141 Мбайт (8%)
Выравнивание                             : Соединение по промежуткам
Продолжительность промежутка             : 32  мс. (0,80 видеокадр)
Время предзагрузки промежутка            : 1632  мс.
-"Золотая коллекция мультиков / Gold Cartoons"
на треке Pirat.ca
-
Download / Скачать

Хотите скачать бесплатно? Зарегистрируйтесь на сайте (ссылка на регистрацию). Pirat.ca - самый быстрый торрент трекер в рунете!

Как скачивать  ·   Что такое торрент  ·   Рейтинг и ограничения



Последний раз редактировалось: kugesan (2013-11-21 07:45), всего редактировалось 6 раз(а)

Пост 27-Сен-2012 22:40 (спустя 1 час 37 минут)

Топик был перенесен из форума Мультфильмы (Трюм) в форум Мультфильмы

erchine
 

CHARLI2236

1090

Пост 21-Ноя-2013 11:34 (спустя 1 год 1 месяц)

[Q] 

подключусь AntiZip 36

_________________
[Профиль]  [ЛС] 
Показать сообщения:    
Ответить на тему

Текущее время: Сегодня 12:11

Часовой пояс: GMT + 4



Вы не можете начинать темы
Вы не можете отвечать на сообщения
Вы не можете редактировать свои сообщения
Вы не можете удалять свои сообщения
Вы не можете голосовать в опросах
Вы не можете прикреплять файлы к сообщениям
Вы не можете скачивать файлы

▼ Вниз