ML
     
  Уважаемый Гость!
Вы можете поддержать проект и зарегистрироваться у наших партнеров - онлайн-стратегия MyLands. При регистрации в игре Вы получите код, который сможете активировать после регистрации на pirat.ca и получить 1000 дублонов.

Ваш код:
ea554e7ed3eacceeae87a8b30a9de3f086c18a84
 
     

Золотая коллекция мультиков. Выпуск 9 / Gold Cartoons (Чак Джонс / Chuck Jones ) [1931-1947, анимация ,DVDRip] MVO + Original (Eng)

Ответить на тему
 
Автор
Сообщение

Пост 29-Окт-2012 13:22

[Q] 

kugesan

Золотая коллекция мультиковGold Cartoons Выпуск 9
Год выпуска: 1931-1947
Страна: США
Жанр: анимация
Продолжительность: 01:40:56
Кол-во серий: 14
Перевод: Профессиональный (многоголосый)
Оригинальный аудиопоток: английский
Субтитры: нет

Режиссер:Чак Джонс / Chuck Jones
Описание: Сборник мультфильмов от студии Warner Bros

Качество: DVDRip
Видео кодек: XviD
Аудио кодек: AC-3
Видео: MPEG-4 Visual at 1966 Кбит/сек, 720 x 544 (1.324) at 25.000 fps
Аудио 1: AC-3 at 192 Кбит/сек, 2 канала(ов), 48,0 КГц - Русский
Аудио 2: AC-3 at 192 Кбит/сек, 2 канала(ов), 48,0 КГц - Английский


01 - Еще один раз / One more time (3 October 1931)
02 - Рыжеволоса крошка / Red-headed baby (26 December 1931)
03 - Языческая луна / Pagan moon (31 January 1932)
04 - Веселая компания / A great big bunch of you (12 November 1932)
05 - Хижина, где живет Санта Клаус / The shanty where Santy Claus lives (7 January 1933)
06 - На шаг впереди собственной тени / One step ahead of my shadow (4 February 1933)
07 - Как тарелка сбежала с ложкой / The dish ran away with the spoon (24 September 1933)
08 - Кролик по-гавайски / Wackiki Wabbit (3 July 1943)
09 - Кроличья сила / Hare Force (22 February 1944)
10 - Супер-кролик / Super-Rabbit (3 April 1943)
11 - Герр встречает кролика / Herr meets Hare (13 January 1945)
12 - Багз Банни и три медведя / Bugs Bunny and the three Bears (26 February 1944)
13 - Жизнь за кулисами / Stage door cartoon (30 December 1944)
14 - Пасхальные примочки / Easter yeggs (28 June 1947)

Код:
Общее
Полное имя                               : \\Keenetic_giga\disk_a1\transmission\Торро\multiki\Золотая Коллекция Мультиков\Vipusk.9\Vipusk.9\Zolotaja.kollekzija.multfilmov.vipusk.9.1931-1947.DVDRip.avi
Формат                                   : AVI
Формат/Информация                        : Audio Video Interleave
Размер файла                             : 1,67 Гбайт
Продолжительность                        : 1 ч. 40 м.
Общий поток                              : 2367 Кбит/сек
Видео
Идентификатор                            : 0
Формат                                   : MPEG-4 Visual
Профиль формата                          : [email protected]
Параметр BVOP формата                    : Нет
Параметр QPel формата                    : Нет
Параметр GMC формата                     : Без точки перехода
Параметр матрицы формата                 : Default (H.263)
Идентификатор кодека                     : XVID
Идентификатор кодека/Подсказка           : XviD
Продолжительность                        : 1 ч. 40 м.
Продолжительность оригинала              : 1 ч. 40 м.
Битрейт                                  : 1966 Кбит/сек
Ширина                                   : 720 пикселей
Высота                                   : 544 пикселя
Соотношение сторон                       : 4:3
Частота кадров                           : 25,000 кадров/сек
Цветовое пространство                    : YUV
Субдискретизация насыщенности            : 4:2:0
Битовая глубина                          : 8 бит
Тип развёртки                            : Прогрессивная
Метод сжатия                             : С потерями
Бит/(Пиксели*Кадры)                      : 0.201
Размер потока                            : 1,39 Гбайт (83%)
Библиотека кодирования                   : XviD 1.1.2 (UTC 2006-11-01)
Аудио #1
Идентификатор                            : 1
Формат                                   : AC-3
Формат/Информация                        : Audio Coding 3
Расширение режима                        : CM (complete main)
Параметр Endianness формата              : Big
Идентификатор кодека                     : 2000
Продолжительность                        : 1 ч. 40 м.
Вид битрейта                             : Постоянный
Битрейт                                  : 192 Кбит/сек
Каналы                                   : 2 канала
Расположение каналов                     : Front: L R
Частота                                  : 48,0 КГц
Битовая глубина                          : 16 бит
Метод сжатия                             : С потерями
Размер потока                            : 139 Мбайт (8%)
Выравнивание                             : Соединение по промежуткам
Продолжительность промежутка             : 32  мс. (0,80 видеокадр)
Аудио #2
Идентификатор                            : 2
Формат                                   : AC-3
Формат/Информация                        : Audio Coding 3
Расширение режима                        : CM (complete main)
Параметр Endianness формата              : Big
Идентификатор кодека                     : 2000
Продолжительность                        : 1 ч. 40 м.
Вид битрейта                             : Постоянный
Битрейт                                  : 192 Кбит/сек
Каналы                                   : 2 канала
Расположение каналов                     : Front: L R
Частота                                  : 48,0 КГц
Битовая глубина                          : 16 бит
Метод сжатия                             : С потерями
Размер потока                            : 139 Мбайт (8%)
Выравнивание                             : Соединение по промежуткам
Продолжительность промежутка             : 32  мс. (0,80 видеокадр)
-"Золотая коллекция мультиков / Gold Cartoons"
на треке Pirat.ca
-
Download / Скачать

Хотите скачать бесплатно? Зарегистрируйтесь на сайте (ссылка на регистрацию). Pirat.ca - самый быстрый торрент трекер в рунете!

Как скачивать  ·   Что такое торрент  ·   Рейтинг и ограничения



Последний раз редактировалось: kugesan (2013-11-21 07:39), всего редактировалось 3 раз(а)

Пост 29-Окт-2012 23:14 (спустя 9 часов)

Топик был перенесен из форума Мультфильмы (Трюм) в форум Мультфильмы

erchine
 

CHARLI2236

1090

Пост 21-Ноя-2013 11:33 (спустя 1 год)

[Q] 

подключусь AntiZip 35

_________________
[Профиль]  [ЛС] 
Показать сообщения:    
Ответить на тему

Текущее время: Сегодня 12:12

Часовой пояс: GMT + 4



Вы не можете начинать темы
Вы не можете отвечать на сообщения
Вы не можете редактировать свои сообщения
Вы не можете удалять свои сообщения
Вы не можете голосовать в опросах
Вы не можете прикреплять файлы к сообщениям
Вы не можете скачивать файлы

▼ Вниз