ML
     
  Уважаемый Гость!
Вы можете поддержать проект и зарегистрироваться у наших партнеров - онлайн-стратегия MyLands. При регистрации в игре Вы получите код, который сможете активировать после регистрации на pirat.ca и получить 1000 дублонов.

Ваш код:
9cfe162481db953a6549f32179d7b3900b8b8643
 
     

Золотая коллекция мультиков. Выпуск 11 / Gold Cartoons (Чак Джонс / Chuck Jones) [1937-1944, анимация, DVDRip] MVO + Original (Eng)

Ответить на тему
 
Автор
Сообщение

Пост 09-Мар-2013 13:07

[Q] 

kugesan

Золотая коллекция мультиковGold Cartoons Выпуск 11
Год выпуска: 1937-1944
Страна: США
Жанр: анимация
Продолжительность: 01:45:33
Кол-во серий: 14
Перевод: Профессиональный (многоголосый)
Оригинальный аудиопоток: английский
Субтитры: нет

Режиссер: Чак Джонс / Chuck Jones
Описание: Сборник мультфильмов от студии Warner Bros

Качество: DVDRip
Видео кодек: XviD
Аудио кодек: AC-3
Видео: MPEG-4 Visual at 1929 Кбит/сек, 720 x 544 (1.324) at 25.000 fps 0.197 bit/pixel
Аудио 1: AC-3 at 192 Кбит/сек, 2 канала(ов), 48,0 КГц - Русский
Аудио 2: AC-3 at 192 Кбит/сек, 2 канала(ов), 48,0 КГц - Английский


01 - Я хочу быть моряком / I wanna be a Sailor (25 September 1937)
02 - Сегодня на арене / Circus today (22 June 1940)
03 - Воздушные каникулы / Aviation vacation (9 August 1941)
04 - Салют, чудак! / Aloha hooey (3 January 1942)
05 - Огни праздника / Holiday highlights (12 October 1940)
06 - Безумный круиз / Crazy cruise (26 March 1942)
07 - Домашняя канарейка / The cagey canary (26 December 1941)
08 - Ванильный панчо / Little pancho vanilla (8 October 1938)
09 - Глупый птенец / Booby Hatched (14 October 1944)
10 - Мне хватает мяса / I got plenty mutton (11 March 1944)
11 - Деревенские радости / Farm frolics (10 May 1941)
12 - Летающий заяц / Falling hare (30 October 1943)
13 - Птичка и зверь / Birdy and the beast (19 August 1944)
14 - Русская рапсодия / Russian Rhapsody (20 May 1944)

Код:
Общее
Полное имя                               : \\Keenetic_giga\disk_a1\transmission\Торро\multiki\Золотая Коллекция Мультиков\Vipusk.11\Vipusk.11\Zolotaja.kollekcija.mul'tikov.Vypusk.11.1937-1944.XviD.DVDRip.avi
Формат                                   : AVI
Формат/Информация                        : Audio Video Interleave
Размер файла                             : 1,72 Гбайт
Продолжительность                        : 1 ч. 45 м.
Общий поток                              : 2330 Кбит/сек
Видео
Идентификатор                            : 0
Формат                                   : MPEG-4 Visual
Профиль формата                          : [email protected]
Параметр BVOP формата                    : Нет
Параметр QPel формата                    : Нет
Параметр GMC формата                     : Без точки перехода
Параметр матрицы формата                 : Default (H.263)
Идентификатор кодека                     : XVID
Идентификатор кодека/Подсказка           : XviD
Продолжительность                        : 1 ч. 45 м.
Продолжительность оригинала              : 1 ч. 45 м.
Битрейт                                  : 1929 Кбит/сек
Ширина                                   : 720 пикселей
Высота                                   : 544 пикселя
Соотношение сторон                       : 4:3
Частота кадров                           : 25,000 кадров/сек
Цветовое пространство                    : YUV
Субдискретизация насыщенности            : 4:2:0
Битовая глубина                          : 8 бит
Тип развёртки                            : Прогрессивная
Метод сжатия                             : С потерями
Бит/(Пиксели*Кадры)                      : 0.197
Размер потока                            : 1,42 Гбайт (83%)
Библиотека кодирования                   : XviD 1.1.2 (UTC 2006-11-01)
Аудио #1
Идентификатор                            : 1
Формат                                   : AC-3
Формат/Информация                        : Audio Coding 3
Расширение режима                        : CM (complete main)
Параметр Endianness формата              : Big
Идентификатор кодека                     : 2000
Продолжительность                        : 1 ч. 45 м.
Вид битрейта                             : Постоянный
Битрейт                                  : 192 Кбит/сек
Каналы                                   : 2 канала
Расположение каналов                     : Front: L R
Частота                                  : 48,0 КГц
Битовая глубина                          : 16 бит
Метод сжатия                             : С потерями
Размер потока                            : 145 Мбайт (8%)
Выравнивание                             : Соединение по промежуткам
Продолжительность промежутка             : 32  мс. (0,80 видеокадр)
Время предзагрузки промежутка            : 1312  мс.
Аудио #2
Идентификатор                            : 2
Формат                                   : AC-3
Формат/Информация                        : Audio Coding 3
Расширение режима                        : CM (complete main)
Параметр Endianness формата              : Big
Идентификатор кодека                     : 2000
Продолжительность                        : 1 ч. 45 м.
Вид битрейта                             : Постоянный
Битрейт                                  : 192 Кбит/сек
Каналы                                   : 2 канала
Расположение каналов                     : Front: L R
Частота                                  : 48,0 КГц
Битовая глубина                          : 16 бит
Метод сжатия                             : С потерями
Размер потока                            : 145 Мбайт (8%)
Выравнивание                             : Соединение по промежуткам
Продолжительность промежутка             : 32  мс. (0,80 видеокадр)
Время предзагрузки промежутка            : 1312  мс.
-"Золотая коллекция мультиков / Gold Cartoons"
на треке Pirat.ca
-
Download / Скачать

Хотите скачать бесплатно? Зарегистрируйтесь на сайте (ссылка на регистрацию). Pirat.ca - самый быстрый торрент трекер в рунете!

Как скачивать  ·   Что такое торрент  ·   Рейтинг и ограничения



Последний раз редактировалось: kugesan (2013-11-21 07:39), всего редактировалось 1 раз

lexmar

Корсар

Пост 09-Мар-2013 13:14 (спустя 6 минут)

[Q] 

[Профиль]  [ЛС] 

kugesan ®

56676

Пост 09-Мар-2013 13:47 (спустя 33 минуты)

[Q] 

lexmar,
Пожалуйста)

_________________

В мире две бесконечности: вселенная и человеческая глупость - Альберт Эйнштен
«Можно вытащить человека из грязи, но нельзя вытащить грязь из человека»!
[Профиль]  [ЛС] 

Пост 09-Мар-2013 16:00 (спустя 2 часа 12 минут)

Топик был перенесен из форума Мультфильмы (Трюм) в форум Мультфильмы

erchine
 

leonid.

Флибустьер

Пост 09-Мар-2013 23:19 (спустя 9 часов)

[Q] 

спасибо!!!
[Профиль]  [ЛС] 

kugesan ®

56676

Пост 10-Мар-2013 08:13 (спустя 8 часов)

[Q] 

leonid.,
Пожалуйста.

_________________

В мире две бесконечности: вселенная и человеческая глупость - Альберт Эйнштен
«Можно вытащить человека из грязи, но нельзя вытащить грязь из человека»!
[Профиль]  [ЛС] 

CHARLI2236

1096

Пост 21-Ноя-2013 11:32 (спустя 8 месяцев 11 дней)

[Q] 

подключусь AntiZip 33

_________________
[Профиль]  [ЛС] 

serjse

Юнга

Пост 04-Мар-2014 17:47 (спустя 3 месяца 13 дней)

[Q] 

Спасибо!!!!!
[Профиль]  [ЛС] 
Показать сообщения:    
Ответить на тему

Текущее время: Сегодня 06:06

Часовой пояс: GMT + 4



Вы не можете начинать темы
Вы не можете отвечать на сообщения
Вы не можете редактировать свои сообщения
Вы не можете удалять свои сообщения
Вы не можете голосовать в опросах
Вы не можете прикреплять файлы к сообщениям
Вы не можете скачивать файлы

▼ Вниз