ML
     
  Уважаемый Гость!
Вы можете поддержать проект и зарегистрироваться у наших партнеров - онлайн-стратегия MyLands. При регистрации в игре Вы получите код, который сможете активировать после регистрации на pirat.ca и получить 1000 дублонов.

Ваш код:
e6008d9811a0b6a1393c3dc51ecd7bc35637bc21
 
     

Золотая коллекция мультиков. Выпуск 13 / Gold Cartoons (Чак Джонс / Chuck Jones) [1932-1947, анимация, DVDRip] MVO + Original (Eng)

Ответить на тему
 
Автор
Сообщение

Пост 09-Мар-2013 15:08

[Q] 

kugesan

Золотая коллекция мультиковGold Cartoons Выпуск 13
Год выпуска: 1932-1947
Страна: США
Жанр: анимация
Продолжительность: 01:44:48
Кол-во серий: 14
Перевод: Профессиональный (многоголосый)
Оригинальный аудиопоток: английский
Субтитры: нет

Режиссер: Чак Джонс / Chuck Jones
Описание: Сборник мультфильмов от студии Warner Bros

Качество: DVDRip
Видео кодек: XviD
Аудио кодек: AC-3
Видео: MPEG-4 Visual at 1946 Кбит/сек, 720 x 544 (1.324) at 25.000 fps 0.199 bit/pixel
Аудио 1: AC-3 at 192 Кбит/сек, 2 канала(ов), 48,0 КГц - Русский
Аудио 2: AC-3 at 192 Кбит/сек, 2 канала(ов), 48,0 КГц - Английский


01 - Фредди - первокурсник / Freddy the freshman (20 February 1932)
02 - Бейсболист из Бронкса / Boulevardier from the bronx (10 October 1936)
03 - Улица флиртов / Along flirtation walk (6 April 1935)
04 - Чемпионы спорта / Sport chumpions (16 August 1941)
05 - Приветствую тебя, приманка / Greetings bait (15 May 1943)
06 - Такой он - футбол / Screwball Football (16 December 1939)
07 - Бейсбольное помешательство / Baseball Bugs (2 February 1946)
08 - Яйцеголовый снова на коне / Egghead rides again (29 November 1937)
09 - Я не хочу драться / Count me out (17 December 1938)
10 - Джонни Смит и индейка Ва-Ху / Johnny Smith and Poker-Huntas (22 October 1938)
11 - День в зоопарке / A day at the zoo (11 March 1939)
12 - Хотите верьте, хотите нет / Believe it or else (3 June 1939)
13 - Семейная вражда / A feud there was (24 September 1938)
14 - Претендент на руку и сердце / Confederate honey (30 March 1940)

Код:
Общее
Полное имя                               : \\Keenetic_giga\disk_a1\transmission\Торро\multiki\Золотая Коллекция Мультиков\Vipusk.13\Vipusk.13\Zolotaja.kollekcija.mul'tikov.Vypusk.13.1932-1947.XviD.DVDRip.avi
Формат                                   : AVI
Формат/Информация                        : Audio Video Interleave
Размер файла                             : 1,72 Гбайт
Продолжительность                        : 1 ч. 44 м.
Общий поток                              : 2347 Кбит/сек
Видео
Идентификатор                            : 0
Формат                                   : MPEG-4 Visual
Профиль формата                          : [email protected]
Параметр BVOP формата                    : Нет
Параметр QPel формата                    : Нет
Параметр GMC формата                     : Без точки перехода
Параметр матрицы формата                 : Default (H.263)
Идентификатор кодека                     : XVID
Идентификатор кодека/Подсказка           : XviD
Продолжительность                        : 1 ч. 44 м.
Продолжительность оригинала              : 1 ч. 44 м.
Битрейт                                  : 1946 Кбит/сек
Ширина                                   : 720 пикселей
Высота                                   : 544 пикселя
Соотношение сторон                       : 4:3
Частота кадров                           : 25,000 кадров/сек
Цветовое пространство                    : YUV
Субдискретизация насыщенности            : 4:2:0
Битовая глубина                          : 8 бит
Тип развёртки                            : Прогрессивная
Метод сжатия                             : С потерями
Бит/(Пиксели*Кадры)                      : 0.199
Размер потока                            : 1,42 Гбайт (83%)
Библиотека кодирования                   : XviD 1.1.2 (UTC 2006-11-01)
Аудио #1
Идентификатор                            : 1
Формат                                   : AC-3
Формат/Информация                        : Audio Coding 3
Расширение режима                        : CM (complete main)
Параметр Endianness формата              : Big
Идентификатор кодека                     : 2000
Продолжительность                        : 1 ч. 44 м.
Вид битрейта                             : Постоянный
Битрейт                                  : 192 Кбит/сек
Каналы                                   : 2 канала
Расположение каналов                     : Front: L R
Частота                                  : 48,0 КГц
Битовая глубина                          : 16 бит
Метод сжатия                             : С потерями
Размер потока                            : 144 Мбайт (8%)
Выравнивание                             : Соединение по промежуткам
Продолжительность промежутка             : 32  мс. (0,80 видеокадр)
Время предзагрузки промежутка            : 1920  мс.
Аудио #2
Идентификатор                            : 2
Формат                                   : AC-3
Формат/Информация                        : Audio Coding 3
Расширение режима                        : CM (complete main)
Параметр Endianness формата              : Big
Идентификатор кодека                     : 2000
Продолжительность                        : 1 ч. 44 м.
Вид битрейта                             : Постоянный
Битрейт                                  : 192 Кбит/сек
Каналы                                   : 2 канала
Расположение каналов                     : Front: L R
Частота                                  : 48,0 КГц
Битовая глубина                          : 16 бит
Метод сжатия                             : С потерями
Размер потока                            : 144 Мбайт (8%)
Выравнивание                             : Соединение по промежуткам
Продолжительность промежутка             : 32  мс. (0,80 видеокадр)
Время предзагрузки промежутка            : 1920  мс.
-"Золотая коллекция мультиков / Gold Cartoons"
на треке Pirat.ca
-
Download / Скачать

Хотите скачать бесплатно? Зарегистрируйтесь на сайте (ссылка на регистрацию). Pirat.ca - самый быстрый торрент трекер в рунете!

Как скачивать  ·   Что такое торрент  ·   Рейтинг и ограничения



Последний раз редактировалось: kugesan (2013-11-21 07:38), всего редактировалось 1 раз

Пост 09-Мар-2013 16:08 (спустя 1 час)

Топик был перенесен из форума Мультфильмы (Трюм) в форум Мультфильмы

erchine
 

CHARLI2236

1097

Пост 21-Ноя-2013 11:31 (спустя 8 месяцев 11 дней)

[Q] 

подключусь AntiZip 31

_________________
[Профиль]  [ЛС] 
Показать сообщения:    
Ответить на тему

Текущее время: Сегодня 02:00

Часовой пояс: GMT + 4



Вы не можете начинать темы
Вы не можете отвечать на сообщения
Вы не можете редактировать свои сообщения
Вы не можете удалять свои сообщения
Вы не можете голосовать в опросах
Вы не можете прикреплять файлы к сообщениям
Вы не можете скачивать файлы

▼ Вниз