ML
     
  Уважаемый Гость!
Вы можете поддержать проект и зарегистрироваться у наших партнеров - онлайн-стратегия MyLands. При регистрации в игре Вы получите код, который сможете активировать после регистрации на pirat.ca и получить 1000 дублонов.

Ваш код:
ee1288b6f7c09d9d2cb2a0f972aba30460ce9333
 
     

Золотая коллекция мультиков. Выпуск 14 / Gold Cartoons (Чак Джонс / Chuck Jones) [1934-1948, анимация, DVDRip] MVO + Original (Eng)

Ответить на тему
 
Автор
Сообщение

Пост 09-Мар-2013 15:19

[Q] 

kugesan

Золотая коллекция мультиковGold Cartoons Выпуск 14
Год выпуска: 1934-1948
Страна: США
Жанр: анимация
Продолжительность: 01:45:33
Кол-во серий: 14
Перевод: Профессиональный (многоголосый)
Оригинальный аудиопоток: английский
Субтитры: нет

Режиссер: Чак Джонс / Chuck Jones
Описание: Сборник мультфильмов от студии Warner Bros

Качество: DVDRip
Видео кодек: XviD
Аудио кодек: AC-3
Видео: MPEG-4 Visual at 1985 Кбит/сек, 720 x 544 (1.324) at 25.000 fps 0.203 bit/pixel
Аудио 1: AC-3 at 192 Кбит/сек, 2 канала(ов), 48,0 КГц - Русский
Аудио 2: AC-3 at 192 Кбит/сек, 2 канала(ов), 48,0 КГц - Английский


01 - Красавица и чудовище / Beauti and the beast (14 April 1934)
02 - Красная шапочка / Little red walking hood (23 December 1937)
03 - Алладин в Багдаде / A-lad-in Bagdad (27 August 1938)
04 - Защитник Робин Гуд / Robinhood makes good (11 February 1939)
05 - Том Тамб в беде / Tom thumb in trouble (8 June 1940)
06 - Обратная сторона медали / A cander at mother coose (25 May 1940)
07 - Гигантский стебелек / Jack-wabbit and the Beanstalk (12 June 1943)
08 - Болван Даффи Дака / Yankee Doodle Daffy (3 July 1943)
09 - Хитрая квакающая утка / The wise quacking duck (1 May 1943)
10 - Боец Даффи Дак / Daffy-the commando (20 November 1943)
11 - Глупый купидон / The stupid cupid (25 November 1944)
12 - Зов природы / Brith of a notion (12 April 1947)
13 - Честный бой / To duck or not to duck (6 March 1943)
14 - Даффи Дак и что делает его таким / DWhat makes Daffy Duck (14 February 1948)

Код:
Общее
Полное имя                               : \\Keenetic_giga\disk_a1\transmission\Торро\multiki\Золотая Коллекция Мультиков\Vipusk.14\Vipusk.14\Zolotaja.kollekcija.mul'tikov.Vypusk.14.1934-1948.XviD.DVDRip.avi
Формат                                   : AVI
Формат/Информация                        : Audio Video Interleave
Размер файла                             : 1,67 Гбайт
Продолжительность                        : 1 ч. 40 м.
Общий поток                              : 2386 Кбит/сек
Видео
Идентификатор                            : 0
Формат                                   : MPEG-4 Visual
Профиль формата                          : [email protected]
Параметр BVOP формата                    : Нет
Параметр QPel формата                    : Нет
Параметр GMC формата                     : Без точки перехода
Параметр матрицы формата                 : Default (H.263)
Идентификатор кодека                     : XVID
Идентификатор кодека/Подсказка           : XviD
Продолжительность                        : 1 ч. 40 м.
Продолжительность оригинала              : 1 ч. 40 м.
Битрейт                                  : 1985 Кбит/сек
Ширина                                   : 720 пикселей
Высота                                   : 544 пикселя
Соотношение сторон                       : 4:3
Частота кадров                           : 25,000 кадров/сек
Цветовое пространство                    : YUV
Субдискретизация насыщенности            : 4:2:0
Битовая глубина                          : 8 бит
Тип развёртки                            : Прогрессивная
Метод сжатия                             : С потерями
Бит/(Пиксели*Кадры)                      : 0.203
Размер потока                            : 1,39 Гбайт (83%)
Библиотека кодирования                   : XviD 1.1.2 (UTC 2006-11-01)
Аудио #1
Идентификатор                            : 1
Формат                                   : AC-3
Формат/Информация                        : Audio Coding 3
Расширение режима                        : CM (complete main)
Параметр Endianness формата              : Big
Идентификатор кодека                     : 2000
Продолжительность                        : 1 ч. 40 м.
Вид битрейта                             : Постоянный
Битрейт                                  : 192 Кбит/сек
Каналы                                   : 2 канала
Расположение каналов                     : Front: L R
Частота                                  : 48,0 КГц
Битовая глубина                          : 16 бит
Метод сжатия                             : С потерями
Размер потока                            : 138 Мбайт (8%)
Выравнивание                             : Соединение по промежуткам
Продолжительность промежутка             : 32  мс. (0,80 видеокадр)
Аудио #2
Идентификатор                            : 2
Формат                                   : AC-3
Формат/Информация                        : Audio Coding 3
Расширение режима                        : CM (complete main)
Параметр Endianness формата              : Big
Идентификатор кодека                     : 2000
Продолжительность                        : 1 ч. 40 м.
Вид битрейта                             : Постоянный
Битрейт                                  : 192 Кбит/сек
Каналы                                   : 2 канала
Расположение каналов                     : Front: L R
Частота                                  : 48,0 КГц
Битовая глубина                          : 16 бит
Метод сжатия                             : С потерями
Размер потока                            : 138 Мбайт (8%)
Выравнивание                             : Соединение по промежуткам
Продолжительность промежутка             : 32  мс. (0,80 видеокадр)
-"Золотая коллекция мультиков / Gold Cartoons"
на треке Pirat.ca
-
Download / Скачать

Хотите скачать бесплатно? Зарегистрируйтесь на сайте (ссылка на регистрацию). Pirat.ca - самый быстрый торрент трекер в рунете!

Как скачивать  ·   Что такое торрент  ·   Рейтинг и ограничения



Последний раз редактировалось: kugesan (2013-11-21 07:38), всего редактировалось 1 раз

Пост 09-Мар-2013 16:10 (спустя 51 минута)

Топик был перенесен из форума Мультфильмы (Трюм) в форум Мультфильмы

erchine
 

CHARLI2236

1096

Пост 21-Ноя-2013 11:30 (спустя 8 месяцев 11 дней)

[Q] 

подключусь AntiZip 30

_________________
[Профиль]  [ЛС] 
Показать сообщения:    
Ответить на тему

Текущее время: Сегодня 18:20

Часовой пояс: GMT + 4



Вы не можете начинать темы
Вы не можете отвечать на сообщения
Вы не можете редактировать свои сообщения
Вы не можете удалять свои сообщения
Вы не можете голосовать в опросах
Вы не можете прикреплять файлы к сообщениям
Вы не можете скачивать файлы

▼ Вниз