ML
     
  Уважаемый Гость!
Вы можете поддержать проект и зарегистрироваться у наших партнеров - онлайн-стратегия MyLands. При регистрации в игре Вы получите код, который сможете активировать после регистрации на pirat.ca и получить 1000 дублонов.

Ваш код:
0af2e2107bc9b5dd5ac2c09f9fc25e1a77c43887
 
     

Золотая коллекция мультиков. Выпуск 15 / Gold Cartoons (Чак Джонс / Chuck Jones) [1940-1948, анимация, DVDRip] MVO + Original (Eng)

Ответить на тему
 
Автор
Сообщение

Пост 09-Мар-2013 16:06

[Q] 

kugesan

Золотая коллекция мультиковGold Cartoons Выпуск 15
Год выпуска: 1940-1948
Страна: США
Жанр: анимация
Продолжительность: 01:44:18
Кол-во серий: 14
Перевод: Профессиональный (многоголосый)
Оригинальный аудиопоток: английский
Субтитры: нет

Режиссер: Чак Джонс / Chuck Jones
Описание: Сборник мультфильмов от студии Warner Bros

Качество: DVDRip
Видео кодек: XviD
Аудио кодек: AC-3
Видео: MPEG-4 Visual at 1756 Кбит/сек, 720 x 544 (1.324) at 25.000 fps 0.179 bit/pixel
Аудио 1: AC-3 at 192 Кбит/сек, 2 канала(ов), 48,0 КГц - Русский
Аудио 2: AC-3 at 192 Кбит/сек, 2 канала(ов), 48,0 КГц - Английский


01 - Трудности на пути Майза Стэндиша / The hardship of Miles Standish (1940)
02 - Мышь - попрыгунчик / Hop, look and listen (17 April 1948)
03 - Учиться рычать / Roughly Squeaking (23 November 1946)
04 - Пес и суслики / The Goofy Gophers (25 January 1947)
05 - Сентиментальная история / Pepe' le Pew in "Scent-imental over you" (8 March 1947)
06 - Ползущее яйцо / Crowing pains (12 July 1947)
07 - Лис и гончий пес / Of fox and hounds (7 December 1940)
08 - Утомляющий будильник / Tick tock tuckered (8 April 1944)
09 - Спокойной ночи, Элмер / Good night Elmer (26 October 1940)
10 - Мышонок Санта Клаус / Bedtime for Sniffles (23 November 1940)
11 - Вредитель в доме / A pest in the house (2 August 1947)
12 - Заточенный, но счастливый поросенок / Trap happy Porky (24 February 1945)
13 - Невыносимый медведь / The Unbearable bear (17 April 1943)
14 - Здесь спал селезень Даффи / Daffy Duck slept here (6 March 1948)

Код:
Общее
Полное имя                               : \\Keenetic_giga\disk_a1\transmission\Торро\multiki\Золотая Коллекция Мультиков\Vipusk.15\Vipusk.15\Zolotaja.kollekcija.mul'tikov.Vypusk.15.1940-1948.XviD.DVDRip.avi
Формат                                   : AVI
Формат/Информация                        : Audio Video Interleave
Размер файла                             : 1,57 Гбайт
Продолжительность                        : 1 ч. 44 м.
Общий поток                              : 2157 Кбит/сек
Видео
Идентификатор                            : 0
Формат                                   : MPEG-4 Visual
Профиль формата                          : [email protected]
Параметр BVOP формата                    : Нет
Параметр QPel формата                    : Нет
Параметр GMC формата                     : Без точки перехода
Параметр матрицы формата                 : Default (H.263)
Идентификатор кодека                     : XVID
Идентификатор кодека/Подсказка           : XviD
Продолжительность                        : 1 ч. 44 м.
Продолжительность оригинала              : 1 ч. 44 м.
Битрейт                                  : 1756 Кбит/сек
Ширина                                   : 720 пикселей
Высота                                   : 544 пикселя
Соотношение сторон                       : 4:3
Частота кадров                           : 25,000 кадров/сек
Цветовое пространство                    : YUV
Субдискретизация насыщенности            : 4:2:0
Битовая глубина                          : 8 бит
Тип развёртки                            : Прогрессивная
Метод сжатия                             : С потерями
Бит/(Пиксели*Кадры)                      : 0.179
Размер потока                            : 1,28 Гбайт (81%)
Библиотека кодирования                   : XviD 1.1.2 (UTC 2006-11-01)
Аудио #1
Идентификатор                            : 1
Формат                                   : AC-3
Формат/Информация                        : Audio Coding 3
Расширение режима                        : CM (complete main)
Параметр Endianness формата              : Big
Идентификатор кодека                     : 2000
Продолжительность                        : 1 ч. 44 м.
Вид битрейта                             : Постоянный
Битрейт                                  : 192 Кбит/сек
Каналы                                   : 2 канала
Расположение каналов                     : Front: L R
Частота                                  : 48,0 КГц
Битовая глубина                          : 16 бит
Метод сжатия                             : С потерями
Размер потока                            : 143 Мбайт (9%)
Выравнивание                             : Соединение по промежуткам
Продолжительность промежутка             : 32  мс. (0,80 видеокадр)
Аудио #2
Идентификатор                            : 2
Формат                                   : AC-3
Формат/Информация                        : Audio Coding 3
Расширение режима                        : CM (complete main)
Параметр Endianness формата              : Big
Идентификатор кодека                     : 2000
Продолжительность                        : 1 ч. 44 м.
Вид битрейта                             : Постоянный
Битрейт                                  : 192 Кбит/сек
Каналы                                   : 2 канала
Расположение каналов                     : Front: L R
Частота                                  : 48,0 КГц
Битовая глубина                          : 16 бит
Метод сжатия                             : С потерями
Размер потока                            : 143 Мбайт (9%)
Выравнивание                             : Соединение по промежуткам
Продолжительность промежутка             : 32  мс. (0,80 видеокадр)
-"Золотая коллекция мультиков / Gold Cartoons"
на треке Pirat.ca
-
Download / Скачать

Хотите скачать бесплатно? Зарегистрируйтесь на сайте (ссылка на регистрацию). Pirat.ca - самый быстрый торрент трекер в рунете!

Как скачивать  ·   Что такое торрент  ·   Рейтинг и ограничения



Последний раз редактировалось: kugesan (2013-11-21 07:38), всего редактировалось 1 раз

Svolochb

Лоцман

Пост 09-Мар-2013 19:00 (спустя 2 часа 54 минуты)

[Q] 

спасибо. как раз племяшке скачаю

_________________
Svolochb-SPB
[Профиль]  [ЛС] 

kugesan ®

56687

Пост 09-Мар-2013 19:24 (спустя 24 минуты)

[Q] 

Svolochb,
Пожалуйста )))

_________________

В мире две бесконечности: вселенная и человеческая глупость - Альберт Эйнштен
«Можно вытащить человека из грязи, но нельзя вытащить грязь из человека»!
[Профиль]  [ЛС] 

Пост 09-Мар-2013 19:39 (спустя 14 минут)

Топик был перенесен из форума Мультфильмы (Трюм) в форум Мультфильмы

erchine
 

CHARLI2236

1097

Пост 21-Ноя-2013 11:29 (спустя 8 месяцев 11 дней)

[Q] 

подключусь AntiZip 29

_________________
[Профиль]  [ЛС] 
Показать сообщения:    
Ответить на тему

Текущее время: Сегодня 00:06

Часовой пояс: GMT + 4



Вы не можете начинать темы
Вы не можете отвечать на сообщения
Вы не можете редактировать свои сообщения
Вы не можете удалять свои сообщения
Вы не можете голосовать в опросах
Вы не можете прикреплять файлы к сообщениям
Вы не можете скачивать файлы

▼ Вниз