ML
     
  Уважаемый Гость!
Вы можете поддержать проект и зарегистрироваться у наших партнеров - онлайн-стратегия MyLands. При регистрации в игре Вы получите код, который сможете активировать после регистрации на pirat.ca и получить 1000 дублонов.

Ваш код:
34514219cfad5497a1822ecc1269bea77988f9aa
 
     

Золотая коллекция мультиков. Выпуск 16 / Gold Cartoons (Чак Джонс / Chuck Jones) [1939-1948, анимация, DVDRip] MVO + Original (Eng)

Ответить на тему
 
Автор
Сообщение

Пост 09-Мар-2013 16:52

[Q] 

kugesan

Золотая коллекция мультиковGold Cartoons Выпуск 16
Год выпуска: 1939-1948
Страна: США
Жанр: анимация
Продолжительность: 01:46:50
Кол-во серий: 15
Перевод: Профессиональный (многоголосый)
Оригинальный аудиопоток: английский
Субтитры: нет

Режиссер: Чак Джонс / Chuck Jones
Описание: Сборник мультфильмов от студии Warner Bros

Качество: DVDRip
Видео кодек: XviD
Аудио кодек: AC-3
Видео: MPEG-4 Visual at 1964 Кбит/сек, 720 x 544 (1.324) at 25.000 fps 0.201 bit/pixel
Аудио 1: AC-3 at 192 Кбит/сек, 2 канала(ов), 48,0 КГц - Русский
Аудио 2: AC-3 at 192 Кбит/сек, 2 канала(ов), 48,0 КГц - Английский


01 - Кролик в наследство / The Wabbit Who Came to Supper (28 March 1942)
02 - Кролик-гипнотизёр / The Hare-Brained Hypnotist (31 October 1942)
03 - Дело пропавшего кролика / Case of the Missing Hare (12 December 1942)
04 - Стандартный кролик / Hare Conditioned (11 August 1945)
05 - Остров сокровищ / Buccaneer Bunny (8 May 1948)
06 - Музыкальный кролик / Rhapsody Rabbit (9 November 1946)
07 - Представляем "Багз Банни" / Leon Schlesinger Presents "Bugs Bunny" (2 April 1942)
08 - Дикий кролик / A Wild Hare (27 July 1940)
09 - Хорошее яйцо / The Good Egg (21 October 1939)
10 - Розыск привидения / Ghost Wanted (10 August 1940)
11 - Зимняя сказка / Snowtime For Comedy (30 August 1941)
12 - Птичка сказала "Ку-ку" / The Bird Came C.O.D. (17 January 1942)
13 - Прогулка по зоопарку / Dog Tired (25 April 1942)
14 - Серебряная лиса / Fox Pop (5 September 1942)
15 - Непрофессиональный репортаж / The Weakly Reporter (25 March 1944)

Код:
Общее
Полное имя                               : \\Keenetic_giga\disk_a1\transmission\Торро\multiki\Золотая Коллекция Мультиков\Vipusk.16\Vipusk.16\Zolotaja.kollekcija.mul'tikov.Vypusk.16.1939-1948.XviD.DVDRip.avi
Формат                                   : AVI
Формат/Информация                        : Audio Video Interleave
Размер файла                             : 1,62 Гбайт
Продолжительность                        : 1 ч. 46 м.
Общий поток                              : 2167 Кбит/сек
Видео
Идентификатор                            : 0
Формат                                   : MPEG-4 Visual
Профиль формата                          : [email protected]
Параметр BVOP формата                    : Нет
Параметр QPel формата                    : Нет
Параметр GMC формата                     : Без точки перехода
Параметр матрицы формата                 : Default (H.263)
Идентификатор кодека                     : XVID
Идентификатор кодека/Подсказка           : XviD
Продолжительность                        : 1 ч. 46 м.
Продолжительность оригинала              : 1 ч. 46 м.
Битрейт                                  : 1964 Кбит/сек
Ширина                                   : 720 пикселей
Высота                                   : 544 пикселя
Соотношение сторон                       : 4:3
Частота кадров                           : 25,000 кадров/сек
Цветовое пространство                    : YUV
Субдискретизация насыщенности            : 4:2:0
Битовая глубина                          : 8 бит
Тип развёртки                            : Прогрессивная
Метод сжатия                             : С потерями
Бит/(Пиксели*Кадры)                      : 0.201
Размер потока                            : 1,47 Гбайт (91%)
Библиотека кодирования                   : XviD 1.1.2 (UTC 2006-11-01)
Аудио
Идентификатор                            : 1
Формат                                   : AC-3
Формат/Информация                        : Audio Coding 3
Расширение режима                        : CM (complete main)
Параметр Endianness формата              : Big
Идентификатор кодека                     : 2000
Продолжительность                        : 1 ч. 46 м.
Вид битрейта                             : Постоянный
Битрейт                                  : 192 Кбит/сек
Каналы                                   : 2 канала
Расположение каналов                     : Front: L R
Частота                                  : 48,0 КГц
Битовая глубина                          : 16 бит
Метод сжатия                             : С потерями
Размер потока                            : 147 Мбайт (9%)
Выравнивание                             : Соединение по промежуткам
Продолжительность промежутка             : 32  мс. (0,80 видеокадр)
Аудио #2
Идентификатор                            : 2
Формат                                   : AC-3
Формат/Информация                        : Audio Coding 3
Расширение режима                        : CM (complete main)
Параметр Endianness формата              : Big
Идентификатор кодека                     : 2000
Продолжительность                        : 1 ч. 45 м.
Вид битрейта                             : Постоянный
Битрейт                                  : 192 Кбит/сек
Каналы                                   : 2 канала
Расположение каналов                     : Front: L R
Частота                                  : 48,0 КГц
Битовая глубина                          : 16 бит
Метод сжатия                             : С потерями
Размер потока                            : 145 Мбайт (8%)
Выравнивание                             : Соединение по промежуткам
Продолжительность промежутка             : 32  мс. (0,80 видеокадр)
Время предзагрузки промежутка            : 1312  мс.
-"Золотая коллекция мультиков / Gold Cartoons"
на треке Pirat.ca
-
Download / Скачать

Хотите скачать бесплатно? Зарегистрируйтесь на сайте (ссылка на регистрацию). Pirat.ca - самый быстрый торрент трекер в рунете!

Как скачивать  ·   Что такое торрент  ·   Рейтинг и ограничения



Последний раз редактировалось: kugesan (2013-11-21 07:38), всего редактировалось 1 раз

Пост 09-Мар-2013 20:02 (спустя 3 часа)

Топик был перенесен из форума Мультфильмы (Трюм) в форум Мультфильмы

erchine
 

CHARLI2236

1089

Пост 21-Ноя-2013 11:29 (спустя 8 месяцев 11 дней)

[Q] 

подключусь AntiZip 28

_________________
[Профиль]  [ЛС] 
Показать сообщения:    
Ответить на тему

Текущее время: Сегодня 07:56

Часовой пояс: GMT + 4



Вы не можете начинать темы
Вы не можете отвечать на сообщения
Вы не можете редактировать свои сообщения
Вы не можете удалять свои сообщения
Вы не можете голосовать в опросах
Вы не можете прикреплять файлы к сообщениям
Вы не можете скачивать файлы

▼ Вниз