ML
     
  Уважаемый Гость!
Вы можете поддержать проект и зарегистрироваться у наших партнеров - онлайн-стратегия MyLands. При регистрации в игре Вы получите код, который сможете активировать после регистрации на pirat.ca и получить 1000 дублонов.

Ваш код:
6f9ab67d502902cc72a06c406977ddb589b7f39d
 
     

Золотая коллекция мультиков. Выпуск 21 / Gold Cartoons (Чак Джонс / Chuck Jones) [1942-1945, анимация, DVDRip] MVO + Original (Eng)

Ответить на тему
 
Автор
Сообщение

Пост 04-Июн-2013 14:36

[Q] 

kugesan

Золотая коллекция мультиковGold Cartoons Выпуск 21
Год выпуска: 1942-1945
Страна: США
Жанр: анимация
Продолжительность: 01:56:21
Кол-во серий: 14
Перевод: Профессиональный (многоголосый)
Оригинальный аудиопоток: английский
Субтитры: нет

Режиссер: Чак Джонс / Chuck Jones
Описание: Сборник мультфильмов от студии Warner Bros

Качество: DVDRip
Видео кодек: XviD
Аудио кодек: AC-3
Видео: MPEG-4 Visual at 1894 Кбит/сек, 720 x 544 (1.324) at 25.000 fps
Аудио 1: AC-3 at 192 Кбит/сек, 2 канала(ов), 48,0 КГц - Русский
Аудио 2: AC-3 at 192 Кбит/сек, 2 канала(ов), 48,0 КГц - Английский


01. 3 поросёнка и адольф волк / Blitz Wolf - 1942
02. Кто рано встаёт , тому бог подаёт / The Early Bird Dood It - 1942
03. Друппи-сыщик / Dumb-Hounded - 1943
04. Красная шапочка / Red Hot Riding Hood - 1943
05. Кто кого убил ? / Who Killed Who? - 1943
06. 3 поросёнка по-новому / One Ham's Family - 1943
07. Голод в пустыне / What's Buzzin' Buzzard? - 1943
08. Бешенная белка / Screwball Squirell - 1944
09. День бейсбола / Batty Baseball - 1944
10. Сумасшедшая белка. Сбежавшая белка / Happy-Go-Nutty - 1944
11. Лучший охотник / Big Heel-Watha - 1944
12. Сумасшедшая белка. Белка попрыгунчик / The Screwy Truant - 1945
13. Убийство дена макгу / The Shooting Of Dan McGoo - 1945
14. Индюшка на ужин / Jerky Turkey - 1945

Код:
Общее
Полное имя                               : \\Keenetic_giga\disk_a1\transmission\Торро\multiki\Золотая Коллекция Мультиков\Vipusk.21\Vipusk.21\Zolotaja.kollekcija.mul'tikov.Vypusk.21.1942-1945.XviD.DVDRip.avi
Формат                                   : AVI
Формат/Информация                        : Audio Video Interleave
Размер файла                             : 1,86 Гбайт
Продолжительность                        : 1 ч. 56 м.
Общий поток                              : 2295 Кбит/сек
Видео
Идентификатор                            : 0
Формат                                   : MPEG-4 Visual
Профиль формата                          : [email protected]
Параметр BVOP формата                    : Нет
Параметр QPel формата                    : Нет
Параметр GMC формата                     : Без точки перехода
Параметр матрицы формата                 : Default (H.263)
Идентификатор кодека                     : XVID
Идентификатор кодека/Подсказка           : XviD
Продолжительность                        : 1 ч. 56 м.
Продолжительность оригинала              : 1 ч. 56 м.
Битрейт                                  : 1894 Кбит/сек
Ширина                                   : 720 пикселей
Высота                                   : 544 пикселя
Соотношение сторон                       : 4:3
Частота кадров                           : 25,000 кадров/сек
Цветовое пространство                    : YUV
Субдискретизация насыщенности            : 4:2:0
Битовая глубина                          : 8 бит
Тип развёртки                            : Прогрессивная
Метод сжатия                             : С потерями
Бит/(Пиксели*Кадры)                      : 0.193
Размер потока                            : 1,54 Гбайт (83%)
Библиотека кодирования                   : XviD 1.1.2 (UTC 2006-11-01)
Аудио #1
Идентификатор                            : 1
Формат                                   : AC-3
Формат/Информация                        : Audio Coding 3
Расширение режима                        : CM (complete main)
Параметр Endianness формата              : Big
Идентификатор кодека                     : 2000
Продолжительность                        : 1 ч. 56 м.
Вид битрейта                             : Постоянный
Битрейт                                  : 192 Кбит/сек
Каналы                                   : 2 канала
Расположение каналов                     : Front: L R
Частота                                  : 48,0 КГц
Битовая глубина                          : 16 бит
Метод сжатия                             : С потерями
Размер потока                            : 160 Мбайт (8%)
Выравнивание                             : Соединение по промежуткам
Продолжительность промежутка             : 32  мс. (0,80 видеокадр)
Аудио #2
Идентификатор                            : 2
Формат                                   : AC-3
Формат/Информация                        : Audio Coding 3
Расширение режима                        : CM (complete main)
Параметр Endianness формата              : Big
Идентификатор кодека                     : 2000
Продолжительность                        : 1 ч. 56 м.
Вид битрейта                             : Постоянный
Битрейт                                  : 192 Кбит/сек
Каналы                                   : 2 канала
Расположение каналов                     : Front: L R
Частота                                  : 48,0 КГц
Битовая глубина                          : 16 бит
Метод сжатия                             : С потерями
Размер потока                            : 160 Мбайт (8%)
Выравнивание                             : Соединение по промежуткам
Продолжительность промежутка             : 32  мс. (0,80 видеокадр)
-"Золотая коллекция мультиков / Gold Cartoons"
на треке Pirat.ca
-
Download / Скачать

Хотите скачать бесплатно? Зарегистрируйтесь на сайте (ссылка на регистрацию). Pirat.ca - самый быстрый торрент трекер в рунете!

Как скачивать  ·   Что такое торрент  ·   Рейтинг и ограничения



Последний раз редактировалось: kugesan (2013-11-21 07:37), всего редактировалось 1 раз

leonid.

Флибустьер

Пост 04-Июн-2013 16:55 (спустя 2 часа 18 минут)

[Q] 

[Профиль]  [ЛС] 

kugesan ®

56639

Пост 04-Июн-2013 17:01 (спустя 6 минут)

[Q] 

Пожалуйста))

_________________

В мире две бесконечности: вселенная и человеческая глупость - Альберт Эйнштен
«Можно вытащить человека из грязи, но нельзя вытащить грязь из человека»!
[Профиль]  [ЛС] 

CHARLI2236

1089

Пост 21-Ноя-2013 11:25 (спустя 5 месяцев 16 дней)

[Q] 

подключусь AntiZip 23

_________________
[Профиль]  [ЛС] 
Показать сообщения:    
Ответить на тему

Текущее время: Сегодня 16:31

Часовой пояс: GMT + 4



Вы не можете начинать темы
Вы не можете отвечать на сообщения
Вы не можете редактировать свои сообщения
Вы не можете удалять свои сообщения
Вы не можете голосовать в опросах
Вы не можете прикреплять файлы к сообщениям
Вы не можете скачивать файлы

▼ Вниз