ML
     
  Уважаемый Гость!
Вы можете поддержать проект и зарегистрироваться у наших партнеров - онлайн-стратегия MyLands. При регистрации в игре Вы получите код, который сможете активировать после регистрации на pirat.ca и получить 1000 дублонов.

Ваш код:
0ea1bf889af42fca5f67d0a391efb3400850ad7c
 
     

Золотая коллекция мультиков. Выпуск 22 / Gold Cartoons (Чак Джонс / Chuck Jones) [1945-1948, анимация, DVDRip] MVO + Original (Eng)

Ответить на тему
 
Автор
Сообщение

Пост 04-Июн-2013 15:28

[Q] 

kugesan

Золотая коллекция мультиковGold Cartoons Выпуск 22
Год выпуска: 1945-1948
Страна: США
Жанр: анимация
Продолжительность: 01:38:27
Кол-во серий: 13
Перевод: Профессиональный (многоголосый)
Оригинальный аудиопоток: английский
Субтитры: нет

Режиссер: Чак Джонс / Chuck Jones
Описание: Сборник мультфильмов от студии Warner Bros

Качество: DVDRip
Видео кодек: XviD
Аудио кодек: AC-3
Видео: MPEG-4 Visual at 1883 Кбит/сек, 720 x 544 (1.324) at 25.000 fps
Аудио 1: AC-3 at 192 Кбит/сек, 2 канала(ов), 48,0 КГц - Русский
Аудио 2: AC-3 at 192 Кбит/сек, 2 канала(ов), 48,0 КГц - Английский


01. Дикий и злобный / Wild And Woolfy - 1945
02. Одинокий ленни / Lonesome Lenny - 1946
03. Деревенский петух / The Hick Chick - 1946
04. Канадская собачья полиция / Nothwest Hounded Police - 1946
05. Бродяги и курятина / Henpecked Hoboes - 1946
06. Охотники на собак / Hound Hunters - 1947
07. Лесные пожарные / Red Hot Rangers - 1947
08. Хижины дяди тома / Uncle Tom's Cabana - 1947
09. Сумасшедший лев / Slap happy Lion - 1947
10. Огромная канарейка / King-size Canary - 1947
11. Что стоит свобода от блох / What Price Fleadom - 1948
12. Маленький скунс / Little Tinker - 1948
13. Везучий утёнок / Lucky Ducky - 1948

Код:
Общее
Полное имя                               : \\Keenetic_giga\disk_a1\transmission\Торро\multiki\Золотая Коллекция Мультиков\Vipusk.22\Vipusk.22\Zolotaja.kollekcija.mul'tikov.Vypusk.22.1945-1948.XviD.DVDRip.avi
Формат                                   : AVI
Формат/Информация                        : Audio Video Interleave
Размер файла                             : 1,57 Гбайт
Продолжительность                        : 1 ч. 38 м.
Общий поток                              : 2284 Кбит/сек
Видео
Идентификатор                            : 0
Формат                                   : MPEG-4 Visual
Профиль формата                          : [email protected]
Параметр BVOP формата                    : Нет
Параметр QPel формата                    : Нет
Параметр GMC формата                     : Без точки перехода
Параметр матрицы формата                 : Default (H.263)
Идентификатор кодека                     : XVID
Идентификатор кодека/Подсказка           : XviD
Продолжительность                        : 1 ч. 38 м.
Продолжительность оригинала              : 1 ч. 38 м.
Битрейт                                  : 1883 Кбит/сек
Ширина                                   : 720 пикселей
Высота                                   : 544 пикселя
Соотношение сторон                       : 4:3
Частота кадров                           : 25,000 кадров/сек
Цветовое пространство                    : YUV
Субдискретизация насыщенности            : 4:2:0
Битовая глубина                          : 8 бит
Тип развёртки                            : Прогрессивная
Метод сжатия                             : С потерями
Бит/(Пиксели*Кадры)                      : 0.192
Размер потока                            : 1,29 Гбайт (82%)
Библиотека кодирования                   : XviD 1.1.2 (UTC 2006-11-01)
Аудио #1
Идентификатор                            : 1
Формат                                   : AC-3
Формат/Информация                        : Audio Coding 3
Расширение режима                        : CM (complete main)
Параметр Endianness формата              : Big
Идентификатор кодека                     : 2000
Продолжительность                        : 1 ч. 38 м.
Вид битрейта                             : Постоянный
Битрейт                                  : 192 Кбит/сек
Каналы                                   : 2 канала
Расположение каналов                     : Front: L R
Частота                                  : 48,0 КГц
Битовая глубина                          : 16 бит
Метод сжатия                             : С потерями
Размер потока                            : 135 Мбайт (8%)
Выравнивание                             : Соединение по промежуткам
Продолжительность промежутка             : 32  мс. (0,80 видеокадр)
Аудио #2
Идентификатор                            : 2
Формат                                   : AC-3
Формат/Информация                        : Audio Coding 3
Расширение режима                        : CM (complete main)
Параметр Endianness формата              : Big
Идентификатор кодека                     : 2000
Продолжительность                        : 1 ч. 38 м.
Вид битрейта                             : Постоянный
Битрейт                                  : 192 Кбит/сек
Каналы                                   : 2 канала
Расположение каналов                     : Front: L R
Частота                                  : 48,0 КГц
Битовая глубина                          : 16 бит
Метод сжатия                             : С потерями
Размер потока                            : 135 Мбайт (8%)
Выравнивание                             : Соединение по промежуткам
Продолжительность промежутка             : 32  мс. (0,80 видеокадр)
-"Золотая коллекция мультиков / Gold Cartoons"
на треке Pirat.ca
-
Download / Скачать

Хотите скачать бесплатно? Зарегистрируйтесь на сайте (ссылка на регистрацию). Pirat.ca - самый быстрый торрент трекер в рунете!

Как скачивать  ·   Что такое торрент  ·   Рейтинг и ограничения



Последний раз редактировалось: kugesan (2013-11-21 07:30), всего редактировалось 1 раз

leonid.

Флибустьер

Пост 04-Июн-2013 16:56 (спустя 1 час 28 минут)

[Q] 

спасибо !
[Профиль]  [ЛС] 

kugesan ®

56648

Пост 04-Июн-2013 17:01 (спустя 5 минут)

[Q] 

Пожалуйста))

_________________

В мире две бесконечности: вселенная и человеческая глупость - Альберт Эйнштен
«Можно вытащить человека из грязи, но нельзя вытащить грязь из человека»!
[Профиль]  [ЛС] 

CHARLI2236

1090

Пост 21-Ноя-2013 11:25 (спустя 5 месяцев 16 дней)

[Q] 

подключусь AntiZip 22

_________________
[Профиль]  [ЛС] 

Нургуль

Пост 01-Мар-2014 20:50 (спустя 3 месяца 10 дней)

[Q] 

Здравствуйте, раздайте, пожалуйста
[Профиль]  [ЛС] 
Показать сообщения:    
Ответить на тему

Текущее время: Сегодня 00:38

Часовой пояс: GMT + 4



Вы не можете начинать темы
Вы не можете отвечать на сообщения
Вы не можете редактировать свои сообщения
Вы не можете удалять свои сообщения
Вы не можете голосовать в опросах
Вы не можете прикреплять файлы к сообщениям
Вы не можете скачивать файлы

▼ Вниз