ML
     
  Уважаемый Гость!
Вы можете поддержать проект и зарегистрироваться у наших партнеров - онлайн-стратегия MyLands. При регистрации в игре Вы получите код, который сможете активировать после регистрации на pirat.ca и получить 1000 дублонов.

Ваш код:
0af2e2107bc9b5dd5ac2c09f9fc25e1a77c43887
 
     

Золотая коллекция мультиков. Выпуск 26 / Gold Cartoons (Чак Джонс / Chuck Jones) [1941-1944, анимация, DVDRip] MVO + Original (Eng)

Ответить на тему
 
Автор
Сообщение

Пост 04-Июн-2013 17:26

[Q] 

kugesan

Золотая коллекция мультиковGold Cartoons Выпуск 26
Год выпуска: 1941-1944
Страна: США
Жанр: анимация
Продолжительность: 01:19:23
Кол-во серий: 11
Перевод: Профессиональный (многоголосый)
Оригинальный аудиопоток: английский
Субтитры: нет

Режиссер: Чак Джонс / Chuck Jones
Описание: Сборник мультфильмов от студии Warner Bros

Качество: DVDRip
Видео кодек: XviD
Аудио кодек: AC-3
Видео: MPEG-4 Visual at 1855 Кбит/сек, 720 x 544 (1.324) at 25.000 fps 0.199 bit/pixel
Аудио 1: AC-3 at 192 Кбит/сек, 2 канала(ов), 48,0 КГц - Русский
Аудио 2: AC-3 at 192 Кбит/сек, 2 канала(ов), 48,0 КГц - Английский


01. Непрофессиональный репортаж / The weakly reporter - 1944, реж. Чак Джонс / Chuck Jones
02. Призывник Даффи / Draftee Daffy - 1945, реж. Роберт Клампетт / Robert Clampett
03. Супер-кролик / Super Rabbit - 1943, реж. Чак Джонс / Chuck Jones
04. Пятый мышиный отряд / Fifth column mouse - 1941, реж. Фриц Фрилинг / Friz Freleng
05. Падающий кролик / Falling hare - 1941, реж. Роберт Клампетт / Robert Clampett
06. Боец Даффи Даг / Daffy - the commando - 1943, реж. Фриц Фрилинг / Friz Freleng
07. Конкурс певцов / Swooner crooner - 1944, реж. Фрэнк Тэшлин / Frank Tashlin
08. Бегущий кролик в красном / Little red riding rabbit - 1941, реж. Фриц Фрилинг / Friz Freleng
09. Летчик – герой Даффи / Plane Daffy - 1944, реж. Фрэнк Тэшлин / Frank Tashlin
10. Багс Бани и Гер / Herr meets Hare - 1941, реж. Фриц Фрилинг / Friz Freleng
11. Русская рапсодия / Russian Rhapsody - 1944, реж. Роберт Клампетт / Robert Clampett

Код:
Общее
Полное имя                               : \\Keenetic_giga\disk_a1\transmission\Торро\multiki\Золотая Коллекция Мультиков\Vipusk.26\Vipusk.26\Zolotaja.kollekcija.multfilmov.vipusk.26.1943-1945.XviD.DVDRip.avi
Формат                                   : AVI
Формат/Информация                        : Audio Video Interleave
Размер файла                             : 1,28 Гбайт
Продолжительность                        : 1 ч. 20 м.
Общий поток                              : 2256 Кбит/сек
Видео
Идентификатор                            : 0
Формат                                   : MPEG-4 Visual
Профиль формата                          : [email protected]
Параметр BVOP формата                    : Нет
Параметр QPel формата                    : Нет
Параметр GMC формата                     : Без точки перехода
Параметр матрицы формата                 : Default (H.263)
Идентификатор кодека                     : XVID
Идентификатор кодека/Подсказка           : XviD
Продолжительность                        : 1 ч. 20 м.
Продолжительность оригинала              : 1 ч. 20 м.
Битрейт                                  : 1855 Кбит/сек
Ширина                                   : 720 пикселей
Высота                                   : 544 пикселя
Соотношение сторон                       : 4:3
Частота кадров                           : 25,000 кадров/сек
Цветовое пространство                    : YUV
Субдискретизация насыщенности            : 4:2:0
Битовая глубина                          : 8 бит
Тип развёртки                            : Прогрессивная
Метод сжатия                             : С потерями
Бит/(Пиксели*Кадры)                      : 0.189
Размер потока                            : 1,05 Гбайт (82%)
Библиотека кодирования                   : XviD 1.1.2 (UTC 2006-11-01)
Аудио #1
Идентификатор                            : 1
Формат                                   : AC-3
Формат/Информация                        : Audio Coding 3
Расширение режима                        : CM (complete main)
Параметр Endianness формата              : Big
Идентификатор кодека                     : 2000
Продолжительность                        : 1 ч. 20 м.
Вид битрейта                             : Постоянный
Битрейт                                  : 192 Кбит/сек
Каналы                                   : 2 канала
Расположение каналов                     : Front: L R
Частота                                  : 48,0 КГц
Битовая глубина                          : 16 бит
Метод сжатия                             : С потерями
Размер потока                            : 111 Мбайт (9%)
Выравнивание                             : Соединение по промежуткам
Продолжительность промежутка             : 32  мс. (0,80 видеокадр)
Аудио #2
Идентификатор                            : 2
Формат                                   : AC-3
Формат/Информация                        : Audio Coding 3
Расширение режима                        : CM (complete main)
Параметр Endianness формата              : Big
Идентификатор кодека                     : 2000
Продолжительность                        : 1 ч. 20 м.
Вид битрейта                             : Постоянный
Битрейт                                  : 192 Кбит/сек
Каналы                                   : 2 канала
Расположение каналов                     : Front: L R
Частота                                  : 48,0 КГц
Битовая глубина                          : 16 бит
Метод сжатия                             : С потерями
Размер потока                            : 111 Мбайт (9%)
Выравнивание                             : Соединение по промежуткам
Продолжительность промежутка             : 32  мс. (0,80 видеокадр)
-"Золотая коллекция мультиков / Gold Cartoons"
на треке Pirat.ca
-
Download / Скачать

Хотите скачать бесплатно? Зарегистрируйтесь на сайте (ссылка на регистрацию). Pirat.ca - самый быстрый торрент трекер в рунете!

Как скачивать  ·   Что такое торрент  ·   Рейтинг и ограничения

CHARLI2236

1097

Пост 21-Ноя-2013 11:21 (спустя 5 месяцев 16 дней)

[Q] 

подключусь AntiZip 18

_________________
[Профиль]  [ЛС] 
Показать сообщения:    
Ответить на тему

Текущее время: Сегодня 00:06

Часовой пояс: GMT + 4



Вы не можете начинать темы
Вы не можете отвечать на сообщения
Вы не можете редактировать свои сообщения
Вы не можете удалять свои сообщения
Вы не можете голосовать в опросах
Вы не можете прикреплять файлы к сообщениям
Вы не можете скачивать файлы

▼ Вниз