ML
     
  Уважаемый Гость!
Вы можете поддержать проект и зарегистрироваться у наших партнеров - онлайн-стратегия MyLands. При регистрации в игре Вы получите код, который сможете активировать после регистрации на pirat.ca и получить 1000 дублонов.

Ваш код:
fcd618d94adc1456bccbde5047c9cd0930e4ae4d
 
     

Золотая коллекция мультиков. Выпуск 29 / Gold Cartoons (Чак Джонс / Chuck Jones) [1936-1957, анимация, DVDRip] MVO + Original (Eng)

Ответить на тему
 
Автор
Сообщение

Пост 04-Июн-2013 18:03

[Q] 

kugesan

Золотая коллекция мультиковGold Cartoons Выпуск 29
Год выпуска: 1936-1957
Страна: США
Жанр: анимация
Продолжительность: 01:37:56
Кол-во серий: 14
Перевод: Профессиональный (многоголосый)
Оригинальный аудиопоток: английский
Субтитры: нет

Режиссер: Чак Джонс / Chuck Jones
Описание: Сборник мультфильмов от студии Warner Bros

Качество: DVDRip
Видео кодек: XviD
Аудио кодек: AC-3
Видео: MPEG-4 Visual at 1895 Кбит/сек, 720 x 544 (1.324) at 25.000 fps 0.199 bit/pixel
Аудио 1: AC-3 at 192 Кбит/сек, 2 канала(ов), 48,0 КГц - Русский
Аудио 2: AC-3 at 192 Кбит/сек, 2 канала(ов), 48,0 КГц - Английский


01. Багги и Магси / Bugsy and Mugsy - 1957, реж. Фриц Фрилинг / Friz Freleng
02. Моя маленькая Дульсинея / My little Duckaroo - 1954, реж. Чак Джонс / Chuck Jones
03. Котик загнан в угол / Catty Cornered - 1953, реж. Фриц Фрилинг / Friz Freleng
04. Часовой взрыватель / The blow out - 1936, реж. Текс Эвери / Tex Avery
05. Не расстраивайся, овечка / Don't give up the sheep - 1953, реж. Чак Джонс / Chuck Jones
06. Страшное кино Порки / Porky's movie mystery - 1939, реж. Роберт Клампетт / Robert Clampett
07. Малыш Багги Банни / Baby Buggy Bunny - 1954, реж. Чак Джонс / Chuck Jones
08. Ограбление национального банка / The stupor salesman - 1948, реж. Артур Дэвис / Arthur Davis
09. Прощай синяя борода / Bye, bye bluebeard - 1949, реж. Артур Дэвис / Arthur Davis
10. Бостонский Кваки / Boston Quackie - 1957, реж. Роберт МакКимсон / Robert McKimson
11. Никчемный Даффи Дак / Riff Raffy Daffy - 1948, реж. Артур Дэвис / Arthur Davis
12. Верный друг попугай / Dough ray me-ow - 1948, реж. Артур Дэвис / Arthur Davis
13. Космическая полиция / Rocket squad - 1956, реж. Чак Джонс / Chuck Jones
14. Бакси и Сагси / Bugs and thugs - 1954, реж. Фриц Фрилинг / Friz Freleng

Код:
Общее
Полное имя                               : \\Keenetic_giga\disk_a1\transmission\Торро\multiki\Золотая Коллекция Мультиков\Vipusk.29\Vipusk.29\Zolotaja.kollekcija.multfilmov.vipusk.29.1936-1957.XviD.DVDRip.avi
Формат                                   : AVI
Формат/Информация                        : Audio Video Interleave
Размер файла                             : 1,57 Гбайт
Продолжительность                        : 1 ч. 37 м.
Общий поток                              : 2296 Кбит/сек
Видео
Идентификатор                            : 0
Формат                                   : MPEG-4 Visual
Профиль формата                          : [email protected]
Параметр BVOP формата                    : Нет
Параметр QPel формата                    : Нет
Параметр GMC формата                     : Без точки перехода
Параметр матрицы формата                 : Default (H.263)
Идентификатор кодека                     : XVID
Идентификатор кодека/Подсказка           : XviD
Продолжительность                        : 1 ч. 37 м.
Продолжительность оригинала              : 1 ч. 37 м.
Битрейт                                  : 1895 Кбит/сек
Ширина                                   : 720 пикселей
Высота                                   : 544 пикселя
Соотношение сторон                       : 4:3
Частота кадров                           : 25,000 кадров/сек
Цветовое пространство                    : YUV
Субдискретизация насыщенности            : 4:2:0
Битовая глубина                          : 8 бит
Тип развёртки                            : Прогрессивная
Метод сжатия                             : С потерями
Бит/(Пиксели*Кадры)                      : 0.194
Размер потока                            : 1,30 Гбайт (83%)
Библиотека кодирования                   : XviD 1.1.2 (UTC 2006-11-01)
Аудио #1
Идентификатор                            : 1
Формат                                   : AC-3
Формат/Информация                        : Audio Coding 3
Расширение режима                        : CM (complete main)
Параметр Endianness формата              : Big
Идентификатор кодека                     : 2000
Продолжительность                        : 1 ч. 37 м.
Вид битрейта                             : Постоянный
Битрейт                                  : 192 Кбит/сек
Каналы                                   : 2 канала
Расположение каналов                     : Front: L R
Частота                                  : 48,0 КГц
Битовая глубина                          : 16 бит
Метод сжатия                             : С потерями
Размер потока                            : 135 Мбайт (8%)
Выравнивание                             : Соединение по промежуткам
Продолжительность промежутка             : 32  мс. (0,80 видеокадр)
Аудио #2
Идентификатор                            : 2
Формат                                   : AC-3
Формат/Информация                        : Audio Coding 3
Расширение режима                        : CM (complete main)
Параметр Endianness формата              : Big
Идентификатор кодека                     : 2000
Продолжительность                        : 1 ч. 37 м.
Вид битрейта                             : Постоянный
Битрейт                                  : 192 Кбит/сек
Каналы                                   : 2 канала
Расположение каналов                     : Front: L R
Частота                                  : 48,0 КГц
Битовая глубина                          : 16 бит
Метод сжатия                             : С потерями
Размер потока                            : 135 Мбайт (8%)
Выравнивание                             : Соединение по промежуткам
Продолжительность промежутка             : 32  мс. (0,80 видеокадр)
-"Золотая коллекция мультиков / Gold Cartoons"
на треке Pirat.ca
-
Download / Скачать

Хотите скачать бесплатно? Зарегистрируйтесь на сайте (ссылка на регистрацию). Pirat.ca - самый быстрый торрент трекер в рунете!

Как скачивать  ·   Что такое торрент  ·   Рейтинг и ограничения

CHARLI2236

1097

Пост 21-Ноя-2013 11:19 (спустя 5 месяцев 16 дней)

[Q] 

подключусь AntiZip 15

_________________
[Профиль]  [ЛС] 
Показать сообщения:    
Ответить на тему

Текущее время: Сегодня 12:50

Часовой пояс: GMT + 4



Вы не можете начинать темы
Вы не можете отвечать на сообщения
Вы не можете редактировать свои сообщения
Вы не можете удалять свои сообщения
Вы не можете голосовать в опросах
Вы не можете прикреплять файлы к сообщениям
Вы не можете скачивать файлы

▼ Вниз