ML
     
  Уважаемый Гость!
Вы можете поддержать проект и зарегистрироваться у наших партнеров - онлайн-стратегия MyLands. При регистрации в игре Вы получите код, который сможете активировать после регистрации на pirat.ca и получить 1000 дублонов.

Ваш код:
db0e0ad91548759ffeb9bb88bed405e1a4b3c165
 
     

Золотая коллекция мультиков. Выпуск 30 / Gold Cartoons (Чак Джонс / Chuck Jones) [1941-1956, анимация, DVDRip] MVO + Original (Eng)

Ответить на тему
 
Автор
Сообщение

Пост 20-Июн-2013 18:46

[Q] 

kugesan

Золотая коллекция мультиковGold Cartoons Выпуск 30
Год выпуска: 1941-1956
Страна: США
Жанр: анимация
Продолжительность: 01:21:23
Кол-во серий: 9
Перевод: Профессиональный (многоголосый)
Оригинальный аудиопоток: английский
Субтитры: нет

Режиссер: Чак Джонс / Chuck Jones
Описание: Сборник мультфильмов от студии Warner Bros

Качество: DVDRip
Видео кодек: XviD
Аудио кодек: AC-3
Видео: MPEG-4 Visual at 1895 Кбит/сек, 720 x 544 (1.324) at 25.000 fps 0.199 bit/pixel
Аудио 1: AC-3 at 192 Кбит/сек, 2 канала(ов), 48,0 КГц - Русский
Аудио 2: AC-3 at 192 Кбит/сек, 2 канала(ов), 48,0 КГц - Английский


01. Дятел Вуди / Woody Woodpecker - 1941, реж. Уолтер Ланц / Walter Lantz
02. Оглоеда на банкете / Banquet busters - 1948, реж. Дик Ланди / Dick Lundy
03. Рожденный долбить / Born to peck - 1952, реж. Дик Ланди / Dick Lundy
04. Стрекозёл и муравьи / The redwood sap - 1951, реж. Дик Ланди / Dick Lundy
05. Полет над кукушкиными часами / The coo coo bird - 1948, реж. Дик Ланди / Dick Lundy
06. Хорошо подмасленные / Well oiled - 1948, реж. Дик Ланди / Dick Lundy
07. Самолетный качегар / Ace in the hole - 1942, реж. Алекс Лав / Alex Lovy
08. Портрет цветка / Arts and flowers - 1956, реж. Пол Смит / Paul J. Smith
09. Легенда сонной долины / The legend of sleepy hollow - 1949, реж. Клайд Джероними, Джек Кинни / Clyde Geronimi, Jack Kinney

Код:
Общее
Полное имя                               : \\Keenetic_giga\disk_a1\transmission\Торро\multiki\Золотая Коллекция Мультиков\Vipusk.30\Vipusk.30\Zolotaja.kollekcija.multfilmov.vipusk.30.1941-1956.XviD.DVDRip.avi
Формат                                   : AVI
Формат/Информация                        : Audio Video Interleave
Размер файла                             : 1,37 Гбайт
Продолжительность                        : 1 ч. 24 м.
Общий поток                              : 2319 Кбит/сек
Видео
Идентификатор                            : 0
Формат                                   : MPEG-4 Visual
Профиль формата                          : [email protected]
Параметр BVOP формата                    : Нет
Параметр QPel формата                    : Нет
Параметр GMC формата                     : Без точки перехода
Параметр матрицы формата                 : Default (H.263)
Идентификатор кодека                     : XVID
Идентификатор кодека/Подсказка           : XviD
Продолжительность                        : 1 ч. 24 м.
Продолжительность оригинала              : 1 ч. 24 м.
Битрейт                                  : 1918 Кбит/сек
Ширина                                   : 720 пикселей
Высота                                   : 544 пикселя
Соотношение сторон                       : 4:3
Частота кадров                           : 25,000 кадров/сек
Цветовое пространство                    : YUV
Субдискретизация насыщенности            : 4:2:0
Битовая глубина                          : 8 бит
Тип развёртки                            : Прогрессивная
Метод сжатия                             : С потерями
Бит/(Пиксели*Кадры)                      : 0.196
Размер потока                            : 1,14 Гбайт (83%)
Библиотека кодирования                   : XviD 1.1.2 (UTC 2006-11-01)
Аудио #1
Идентификатор                            : 1
Формат                                   : AC-3
Формат/Информация                        : Audio Coding 3
Расширение режима                        : CM (complete main)
Параметр Endianness формата              : Big
Идентификатор кодека                     : 2000
Продолжительность                        : 1 ч. 24 м.
Вид битрейта                             : Постоянный
Битрейт                                  : 192 Кбит/сек
Каналы                                   : 2 канала
Расположение каналов                     : Front: L R
Частота                                  : 48,0 КГц
Битовая глубина                          : 16 бит
Метод сжатия                             : С потерями
Размер потока                            : 117 Мбайт (8%)
Выравнивание                             : Соединение по промежуткам
Продолжительность промежутка             : 32  мс. (0,80 видеокадр)
Аудио #2
Идентификатор                            : 2
Формат                                   : AC-3
Формат/Информация                        : Audio Coding 3
Расширение режима                        : CM (complete main)
Параметр Endianness формата              : Big
Идентификатор кодека                     : 2000
Продолжительность                        : 1 ч. 24 м.
Вид битрейта                             : Постоянный
Битрейт                                  : 192 Кбит/сек
Каналы                                   : 2 канала
Расположение каналов                     : Front: L R
Частота                                  : 48,0 КГц
Битовая глубина                          : 16 бит
Метод сжатия                             : С потерями
Размер потока                            : 117 Мбайт (8%)
Выравнивание                             : Соединение по промежуткам
Продолжительность промежутка             : 32  мс. (0,80 видеокадр)
-"Золотая коллекция мультиков / Gold Cartoons"
на треке Pirat.ca
-
Download / Скачать

Хотите скачать бесплатно? Зарегистрируйтесь на сайте (ссылка на регистрацию). Pirat.ca - самый быстрый торрент трекер в рунете!

Как скачивать  ·   Что такое торрент  ·   Рейтинг и ограничения



Последний раз редактировалось: kugesan (2013-11-21 07:29), всего редактировалось 1 раз

Пост 20-Июн-2013 18:54 (спустя 7 минут)

Топик был перенесен из форума Мультфильмы (Трюм) в форум Зарубежные короткометражные мультфильмы

ara1205
 

CHARLI2236

1098

Пост 21-Ноя-2013 11:01 (спустя 5 месяцев)

[Q] 

подключусь AntiZip 14

_________________
[Профиль]  [ЛС] 
Показать сообщения:    
Ответить на тему

Текущее время: Сегодня 08:07

Часовой пояс: GMT + 4



Вы не можете начинать темы
Вы не можете отвечать на сообщения
Вы не можете редактировать свои сообщения
Вы не можете удалять свои сообщения
Вы не можете голосовать в опросах
Вы не можете прикреплять файлы к сообщениям
Вы не можете скачивать файлы

▼ Вниз