ML
     
  Уважаемый Гость!
Вы можете поддержать проект и зарегистрироваться у наших партнеров - онлайн-стратегия MyLands. При регистрации в игре Вы получите код, который сможете активировать после регистрации на pirat.ca и получить 1000 дублонов.

Ваш код:
5f4e94775bc0501caff7b254e79328d304c817d9
 
     

Золотая коллекция мультиков. Выпуск 31 / Gold Cartoons (Чак Джонс / Chuck Jones) [1963-1983, анимация, DVDRip] MVO + Original (Eng)

Ответить на тему
 
Автор
Сообщение

Пост 20-Июн-2013 18:56

[Q] 

kugesan

Золотая коллекция мультиковGold Cartoons Выпуск 31
Год выпуска: 1963-1983
Страна: США
Жанр: анимация
Продолжительность: 01:33:17
Кол-во серий: 17
Перевод: Профессиональный (многоголосый)
Оригинальный аудиопоток: английский
Субтитры: нет

Режиссер: Чак Джонс / Chuck Jones
Описание: Сборник мультфильмов от студии Warner Bros

Качество: DVDRip
Видео кодек: XviD
Аудио кодек: AC-3
Видео: MPEG-4 Visual at 1895 Кбит/сек, 720 x 544 (1.324) at 25.000 fps 0.199 bit/pixel
Аудио 1: AC-3 at 192 Кбит/сек, 2 канала(ов), 48,0 КГц - Русский
Аудио 2: AC-3 at 192 Кбит/сек, 2 канала(ов), 48,0 КГц - Английский


01. Капуцин в розовой пантере / Capucine in Pink Panter - 1963, реж. Блейк Эдвардс / Blake Edwards
02. Розовая шутка / The pink phink - 1964, реж. Фриц Фрилинг, Хоули Пратт / Friz Freleng, Hawley Pratt
03. Розовая пижама / Pink pajamas - 1964, реж. Фриц Фрилинг, Хоули Пратт / Friz Freleng, Hawley Pratt
04. Продаем розовые марки / We give pink stamps - 1965, реж. Фриц Фрилинг, Хоули Пратт / Friz Freleng, Hawley Pratt
05. Розовому звонить через "Р" / Dial ''P'' for Pink - 1965, реж. Фриц Фрилинг, Хоули Пратт / Friz Freleng, Hawley Pratt
06. Розовый пунш / Pink punch - 1966, реж. Хоули Пратт / Hawley Pratt
07. Входите, розовая вода / Come on it! The water's Pink - 1968, реж. Хоули Пратт / Hawley Pratt
08. Розовый палец / Pinkfinger - 1965, реж. Фриц Фрилинг, Хоули Пратт / Friz Freleng, Hawley Pratt
09. Розовая пантера наносит удар / In the Pink Panter strikes again - 1976, реж. Блейк Эдвардс / Blake Edwards
10. Месть Розовой Пантеры / Revenge of the Pink Panter - 1978, реж. Блейк Эдвардс / Blake Edwards
11. След Розовой Пантеры / Trail of the Pink Panther - 1982, реж. Блейк Эдвардс / Blake Edwards
12. Проклятье Розовой пантеры / Curce of the Pink Panter - 1983, реж. Блейк Эдвардс / Blake Edwards
13. Розовый чертёж / The Pink blueprint - 1966, реж. Хоули Пратт / Hawley Pratt
14. Розовый психоз / Psychedelic Pink - 1968, реж. Хоули Пратт / Hawley Pratt
15. Выстрел во тьме / A shot in the dark - 1964, реж. Блейк Эдвардс / Blake Edwards
16. Инспектор / The inspector - 1963, реж. Блейк Эдвардс / Blake Edwards
17. Розовый, звонкий, громкий / Pink, plunk, plink - 1966, реж. Хоули Пратт / Hawley Pratt

Код:
Общее
Полное имя                               : \\Keenetic_giga\disk_a1\transmission\Торро\multiki\Золотая Коллекция Мультиков\Vipusk.31\Vipusk.31\Zolotaja.kollekcija.multfilmov.vipusk.31.1963-1983.XviD.DVDRip.avi
Формат                                   : AVI
Формат/Информация                        : Audio Video Interleave
Размер файла                             : 1,67 Гбайт
Продолжительность                        : 1 ч. 36 м.
Общий поток                              : 2473 Кбит/сек
Видео
Идентификатор                            : 0
Формат                                   : MPEG-4 Visual
Профиль формата                          : [email protected]
Параметр BVOP формата                    : Нет
Параметр QPel формата                    : Нет
Параметр GMC формата                     : Без точки перехода
Параметр матрицы формата                 : Default (H.263)
Идентификатор кодека                     : XVID
Идентификатор кодека/Подсказка           : XviD
Продолжительность                        : 1 ч. 36 м.
Продолжительность оригинала              : 1 ч. 36 м.
Битрейт                                  : 2072 Кбит/сек
Ширина                                   : 720 пикселей
Высота                                   : 544 пикселя
Соотношение сторон                       : 4:3
Частота кадров                           : 25,000 кадров/сек
Цветовое пространство                    : YUV
Субдискретизация насыщенности            : 4:2:0
Битовая глубина                          : 8 бит
Тип развёртки                            : Прогрессивная
Метод сжатия                             : С потерями
Бит/(Пиксели*Кадры)                      : 0.212
Размер потока                            : 1,40 Гбайт (84%)
Библиотека кодирования                   : XviD 1.1.2 (UTC 2006-11-01)
Аудио #1
Идентификатор                            : 1
Формат                                   : AC-3
Формат/Информация                        : Audio Coding 3
Расширение режима                        : CM (complete main)
Параметр Endianness формата              : Big
Идентификатор кодека                     : 2000
Продолжительность                        : 1 ч. 36 м.
Вид битрейта                             : Постоянный
Битрейт                                  : 192 Кбит/сек
Каналы                                   : 2 канала
Расположение каналов                     : Front: L R
Частота                                  : 48,0 КГц
Битовая глубина                          : 16 бит
Метод сжатия                             : С потерями
Размер потока                            : 133 Мбайт (8%)
Выравнивание                             : Соединение по промежуткам
Продолжительность промежутка             : 32  мс. (0,80 видеокадр)
Время предзагрузки промежутка            : 768  мс.
Аудио #2
Идентификатор                            : 2
Формат                                   : AC-3
Формат/Информация                        : Audio Coding 3
Расширение режима                        : CM (complete main)
Параметр Endianness формата              : Big
Идентификатор кодека                     : 2000
Продолжительность                        : 1 ч. 36 м.
Вид битрейта                             : Постоянный
Битрейт                                  : 192 Кбит/сек
Каналы                                   : 2 канала
Расположение каналов                     : Front: L R
Частота                                  : 48,0 КГц
Битовая глубина                          : 16 бит
Метод сжатия                             : С потерями
Размер потока                            : 133 Мбайт (8%)
Выравнивание                             : Соединение по промежуткам
Продолжительность промежутка             : 32  мс. (0,80 видеокадр)
Время предзагрузки промежутка            : 768  мс.
-"Золотая коллекция мультиков / Gold Cartoons"
на треке Pirat.ca
-
Download / Скачать

Хотите скачать бесплатно? Зарегистрируйтесь на сайте (ссылка на регистрацию). Pirat.ca - самый быстрый торрент трекер в рунете!

Как скачивать  ·   Что такое торрент  ·   Рейтинг и ограничения



Последний раз редактировалось: kugesan (2013-11-21 07:29), всего редактировалось 1 раз

Пост 20-Июн-2013 19:26 (спустя 30 минут)

Топик был перенесен из форума Мультфильмы (Трюм) в форум Зарубежные короткометражные мультфильмы

ara1205
 

CHARLI2236

1089

Пост 21-Ноя-2013 11:01 (спустя 5 месяцев)

[Q] 

подключусь AntiZip 13

_________________
[Профиль]  [ЛС] 
Показать сообщения:    
Ответить на тему

Текущее время: Сегодня 15:38

Часовой пояс: GMT + 4



Вы не можете начинать темы
Вы не можете отвечать на сообщения
Вы не можете редактировать свои сообщения
Вы не можете удалять свои сообщения
Вы не можете голосовать в опросах
Вы не можете прикреплять файлы к сообщениям
Вы не можете скачивать файлы

▼ Вниз