ML
     
  Уважаемый Гость!
Вы можете поддержать проект и зарегистрироваться у наших партнеров - онлайн-стратегия MyLands. При регистрации в игре Вы получите код, который сможете активировать после регистрации на pirat.ca и получить 1000 дублонов.

Ваш код:
ba41f7961e0b4717aed6a401d955262223b8f6c4
 
     

Золотая коллекция мультиков. Выпуск 32 / Gold Cartoons (Чак Джонс / Chuck Jones) [1949-1962, анимация, DVDRip] MVO + Original (Eng)

Ответить на тему
 
Автор
Сообщение

Пост 20-Июн-2013 19:06

[Q] 

kugesan

Золотая коллекция мультиковGold Cartoons Выпуск 32
Год выпуска: 1949-1962
Страна: США
Жанр: анимация
Продолжительность: 01:47:16
Кол-во серий: 16
Перевод: Профессиональный (многоголосый)
Оригинальный аудиопоток: английский
Субтитры: нет

Режиссер: Чак Джонс / Chuck Jones
Описание: Сборник мультфильмов от студии Warner Bros

Качество: DVDRip
Видео кодек: XviD
Аудио кодек: AC-3
Видео: MPEG-4 Visual at 1895 Кбит/сек, 720 x 544 (1.324) at 25.000 fps 0.199 bit/pixel
Аудио 1: AC-3 at 192 Кбит/сек, 2 канала(ов), 48,0 КГц - Русский
Аудио 2: AC-3 at 192 Кбит/сек, 2 канала(ов), 48,0 КГц - Английский


01. Чокнутые в ассортименте / A Bear For Punishment - 1951, реж. Чак Джонс / Chuck Jones
02. Пёс отправился на юг / Dog Gone South - 1950, реж. Чак Джонс / Chuck Jones
03. Мечтательный герой / Boyhood Daze - 1957, реж. Чак Джонс / Chuck Jones
04. Докучные гости / Pests For Guests - 1955, реж. Фриц Фрилинг / Frits Freleng
05. Вредные мышата / Mouse Wreckers - 1948, реж. Чак Джонс / Chuck Jones
06. Над пропастью в траве / A Sheep in the Deep - 1962, реж. Чак Джонс, Морис Ноубл / Chuck Jones, Maurice Noble
07. Как это принято у кроликов / Rabbit's Kin - 1952, реж. Роберт МакКимсон / Robert McKimson
08. Накормить котёнка / Feed the Kitty - 1952, реж. Чак Джонс / Chuck Jones
09. Кот-ипохондрик / The Hypo-chondri-cat - 1950, реж. Чак Джонс / Chuck Jones
10. Сны на яву / From A To Z-z-z-z - 1953, реж. Чак Джонс / Chuck Jones
11. Обжор-терьер / Chow Hound - 1951, реж. Чак Джонс / Chuck Jones
12. Борьба с отцом / Strife With Father - 1950, реж. Роберт МакКимсон / Robert McKimson
13. Медвежьи полдвиги / Bear Feat - 1949, реж. Чак Джонс / Chuck Jones
14. Коварство и любовь / Feline Frame-Up - 1954, реж. Чак Джонс / Chuck Jones
15. Бейсбольные страсти / Gone Batty - 1954, реж. Роберт МакКимсон / Robert McKimson
16. Как добиться успеха и найти хозяина / A Hound For Trouble - 1951, реж. Чак Джонс / Chuck Jones

Код:
Общее
Полное имя                               : \\Keenetic_giga\disk_a1\transmission\Торро\multiki\Золотая Коллекция Мультиков\Vipusk.32\Vipusk.32\Zolotaja.kollekcija.multfilmov.vipusk.32.1948-1962.XviD.DVDRip.avi
Формат                                   : AVI
Формат/Информация                        : Audio Video Interleave
Размер файла                             : 1,77 Гбайт
Продолжительность                        : 1 ч. 51 м.
Общий поток                              : 2269 Кбит/сек
Видео
Идентификатор                            : 0
Формат                                   : MPEG-4 Visual
Профиль формата                          : [email protected]
Параметр BVOP формата                    : Нет
Параметр QPel формата                    : Нет
Параметр GMC формата                     : Без точки перехода
Параметр матрицы формата                 : Default (H.263)
Идентификатор кодека                     : XVID
Идентификатор кодека/Подсказка           : XviD
Продолжительность                        : 1 ч. 51 м.
Продолжительность оригинала              : 1 ч. 51 м.
Битрейт                                  : 1868 Кбит/сек
Ширина                                   : 720 пикселей
Высота                                   : 544 пикселя
Соотношение сторон                       : 4:3
Частота кадров                           : 25,000 кадров/сек
Цветовое пространство                    : YUV
Субдискретизация насыщенности            : 4:2:0
Битовая глубина                          : 8 бит
Тип развёртки                            : Прогрессивная
Метод сжатия                             : С потерями
Бит/(Пиксели*Кадры)                      : 0.191
Размер потока                            : 1,45 Гбайт (82%)
Библиотека кодирования                   : XviD 1.1.2 (UTC 2006-11-01)
Аудио #1
Идентификатор                            : 1
Формат                                   : AC-3
Формат/Информация                        : Audio Coding 3
Расширение режима                        : CM (complete main)
Параметр Endianness формата              : Big
Идентификатор кодека                     : 2000
Продолжительность                        : 1 ч. 51 м.
Вид битрейта                             : Постоянный
Битрейт                                  : 192 Кбит/сек
Каналы                                   : 2 канала
Расположение каналов                     : Front: L R
Частота                                  : 48,0 КГц
Битовая глубина                          : 16 бит
Метод сжатия                             : С потерями
Размер потока                            : 153 Мбайт (8%)
Выравнивание                             : Соединение по промежуткам
Продолжительность промежутка             : 32  мс. (0,80 видеокадр)
Время предзагрузки промежутка            : 480  мс.
Аудио #2
Идентификатор                            : 2
Формат                                   : AC-3
Формат/Информация                        : Audio Coding 3
Расширение режима                        : CM (complete main)
Параметр Endianness формата              : Big
Идентификатор кодека                     : 2000
Продолжительность                        : 1 ч. 51 м.
Вид битрейта                             : Постоянный
Битрейт                                  : 192 Кбит/сек
Каналы                                   : 2 канала
Расположение каналов                     : Front: L R
Частота                                  : 48,0 КГц
Битовая глубина                          : 16 бит
Метод сжатия                             : С потерями
Размер потока                            : 153 Мбайт (8%)
Выравнивание                             : Соединение по промежуткам
Продолжительность промежутка             : 32  мс. (0,80 видеокадр)
Время предзагрузки промежутка            : 416  мс.
-"Золотая коллекция мультиков / Gold Cartoons"
на треке Pirat.ca
-
Download / Скачать

Хотите скачать бесплатно? Зарегистрируйтесь на сайте (ссылка на регистрацию). Pirat.ca - самый быстрый торрент трекер в рунете!

Как скачивать  ·   Что такое торрент  ·   Рейтинг и ограничения



Последний раз редактировалось: kugesan (2013-11-21 07:29), всего редактировалось 1 раз

Пост 20-Июн-2013 19:27 (спустя 20 минут)

Топик был перенесен из форума Мультфильмы (Трюм) в форум Зарубежные короткометражные мультфильмы

ara1205
 

CHARLI2236

1097

Пост 21-Ноя-2013 11:00 (спустя 5 месяцев)

[Q] 

подключусь AntiZip 12

_________________
[Профиль]  [ЛС] 
Показать сообщения:    
Ответить на тему

Текущее время: Сегодня 14:47

Часовой пояс: GMT + 4



Вы не можете начинать темы
Вы не можете отвечать на сообщения
Вы не можете редактировать свои сообщения
Вы не можете удалять свои сообщения
Вы не можете голосовать в опросах
Вы не можете прикреплять файлы к сообщениям
Вы не можете скачивать файлы

▼ Вниз