ML
     
  Уважаемый Гость!
Вы можете поддержать проект и зарегистрироваться у наших партнеров - онлайн-стратегия MyLands. При регистрации в игре Вы получите код, который сможете активировать после регистрации на pirat.ca и получить 1000 дублонов.

Ваш код:
500cb7bd8d2cec9a8aba647a87ce41c4b76f06bd
 
     

Золотая коллекция мультиков. Выпуск 34 / Gold Cartoons (Чак Джонс / Chuck Jones) [1935-1961, анимация, DVDRip] MVO + Original (Eng)

Ответить на тему
 
Автор
Сообщение

Пост 20-Июн-2013 22:52

[Q] 

kugesan

Золотая коллекция мультиковGold Cartoons Выпуск 34
Год выпуска: 1935-1961
Страна: США
Жанр: анимация
Продолжительность: 01:31:23
Кол-во серий: 12
Перевод: Профессиональный (многоголосый)
Оригинальный аудиопоток: английский
Субтитры: нет

Режиссер: Чак Джонс / Chuck Jones
Описание: Сборник мультфильмов от студии Warner Bros

Качество: DVDRip
Видео кодек: XviD
Аудио кодек: AC-3
Видео: MPEG-4 Visual at 1895 Кбит/сек, 720 x 544 (1.324) at 25.000 fps 0.199 bit/pixel
Аудио 1: AC-3 at 192 Кбит/сек, 2 канала(ов), 48,0 КГц - Русский
Аудио 2: AC-3 at 192 Кбит/сек, 2 канала(ов), 48,0 КГц - Английский


01. Отец и лев / Father's Lion - 1952, реж. Джек Кинни / Jack Kinney
02. Чай на 200 персон / Tea for Two Hundred - 1948, реж. Джек Ханна / Jack Hannah
03. Простые вещи / The Simple Things - 1953, реж. Чарльз А. Николс / Charles Nichols
04. Двухнедельный отпуск / Two Weeks Vacation - 1952, реж. Джек Кинни / Jack Kinney
05. Чистильщики часов / Clock Cleaners - 1937, реж. Бен Шарпстин / Ben Sharpsteen
06. Багажная суета / Baggage Buster - 1941, реж. Джек Кинни / Jack Kinney
07. Пожарная бригада Микки / Mickey's Fire Brigade - 1935, реж. Бен Шарпстин / Ben Sharpsteen
08. Банный день / The Big Wash - 1948, реж. Клайд Джероними / Clyde Geronimi
09. Олимпийский чемпион / The Olympic Champ - 1942, реж. Джек Кинни / Jack Kinney
10. Дональд играет в гольф / Donald's Golf Game - 1942, реж. Джек Кинг / Jack King
11. Искусство катания на лыжах / The Art of Skiing - 1941, реж. Джек Кинни / Jack Kinney
12. Аквамания / Aquamania - 1961, реж. Вольфганг Райтерман / Wolfgang Reitherman

Код:
Общее
Полное имя                               : \\Keenetic_giga\disk_a1\transmission\Торро\multiki\Золотая Коллекция Мультиков\Vipusk.34\Vipusk.34\Zolotaja.kollekcija.multfilmov.vipusk.34.1941-1961.XviD.DVDRip.avi
Формат                                   : AVI
Формат/Информация                        : Audio Video Interleave
Размер файла                             : 1,56 Гбайт
Продолжительность                        : 1 ч. 33 м.
Общий поток                              : 2385 Кбит/сек
Видео
Идентификатор                            : 0
Формат                                   : MPEG-4 Visual
Профиль формата                          : [email protected]
Параметр BVOP формата                    : Нет
Параметр QPel формата                    : Нет
Параметр GMC формата                     : Без точки перехода
Параметр матрицы формата                 : Default (H.263)
Идентификатор кодека                     : XVID
Идентификатор кодека/Подсказка           : XviD
Продолжительность                        : 1 ч. 33 м.
Продолжительность оригинала              : 1 ч. 33 м.
Битрейт                                  : 1984 Кбит/сек
Ширина                                   : 720 пикселей
Высота                                   : 544 пикселя
Соотношение сторон                       : 4:3
Частота кадров                           : 25,000 кадров/сек
Цветовое пространство                    : YUV
Субдискретизация насыщенности            : 4:2:0
Битовая глубина                          : 8 бит
Тип развёртки                            : Прогрессивная
Метод сжатия                             : С потерями
Бит/(Пиксели*Кадры)                      : 0.203
Размер потока                            : 1,30 Гбайт (83%)
Библиотека кодирования                   : XviD 1.1.2 (UTC 2006-11-01)
Аудио #1
Идентификатор                            : 1
Формат                                   : AC-3
Формат/Информация                        : Audio Coding 3
Расширение режима                        : CM (complete main)
Параметр Endianness формата              : Big
Идентификатор кодека                     : 2000
Продолжительность                        : 1 ч. 33 м.
Вид битрейта                             : Постоянный
Битрейт                                  : 192 Кбит/сек
Каналы                                   : 2 канала
Расположение каналов                     : Front: L R
Частота                                  : 48,0 КГц
Битовая глубина                          : 16 бит
Метод сжатия                             : С потерями
Размер потока                            : 129 Мбайт (8%)
Выравнивание                             : Соединение по промежуткам
Продолжительность промежутка             : 32  мс. (0,80 видеокадр)
Аудио #2
Идентификатор                            : 2
Формат                                   : AC-3
Формат/Информация                        : Audio Coding 3
Расширение режима                        : CM (complete main)
Параметр Endianness формата              : Big
Идентификатор кодека                     : 2000
Продолжительность                        : 1 ч. 33 м.
Вид битрейта                             : Постоянный
Битрейт                                  : 192 Кбит/сек
Каналы                                   : 2 канала
Расположение каналов                     : Front: L R
Частота                                  : 48,0 КГц
Битовая глубина                          : 16 бит
Метод сжатия                             : С потерями
Размер потока                            : 129 Мбайт (8%)
Выравнивание                             : Соединение по промежуткам
Продолжительность промежутка             : 32  мс. (0,80 видеокадр)
-"Золотая коллекция мультиков / Gold Cartoons"
на треке Pirat.ca
-
Download / Скачать

Хотите скачать бесплатно? Зарегистрируйтесь на сайте (ссылка на регистрацию). Pirat.ca - самый быстрый торрент трекер в рунете!

Как скачивать  ·   Что такое торрент  ·   Рейтинг и ограничения



Последний раз редактировалось: kugesan (2013-11-21 07:29), всего редактировалось 1 раз

Пост 21-Июн-2013 04:23 (спустя 5 часов)

Топик был перенесен из форума Мультфильмы (Трюм) в форум Мультфильмы

Jigsaw
 

CHARLI2236

1094

Пост 21-Ноя-2013 10:59 (спустя 5 месяцев)

[Q] 

подключусь AntiZip 10

_________________
[Профиль]  [ЛС] 
Показать сообщения:    
Ответить на тему

Текущее время: Сегодня 01:50

Часовой пояс: GMT + 4



Вы не можете начинать темы
Вы не можете отвечать на сообщения
Вы не можете редактировать свои сообщения
Вы не можете удалять свои сообщения
Вы не можете голосовать в опросах
Вы не можете прикреплять файлы к сообщениям
Вы не можете скачивать файлы

▼ Вниз