ML
     
  Уважаемый Гость!
Вы можете поддержать проект и зарегистрироваться у наших партнеров - онлайн-стратегия MyLands. При регистрации в игре Вы получите код, который сможете активировать после регистрации на pirat.ca и получить 1000 дублонов.

Ваш код:
8b752b428cf60a012c159dcae592cd1392170115
 
     

Золотая коллекция мультиков. Выпуск 37 / Gold Cartoons (Чак Джонс / Chuck Jones) [1939-1948, анимация, DVDRip] MVO + Original (Eng)

Ответить на тему
 
Автор
Сообщение

Пост 21-Июн-2013 17:28

[Q] 

kugesan

Золотая коллекция мультиковGold Cartoons Выпуск 37
Год выпуска: 1939-1948
Страна: США
Жанр: анимация
Продолжительность: 01:38:12
Кол-во серий: 13
Перевод: Профессиональный (многоголосый)
Оригинальный аудиопоток: английский
Субтитры: нет

Режиссер: Чак Джонс / Chuck Jones
Описание: Сборник мультфильмов от студии Warner Bros

Качество: DVDRip
Видео кодек: XviD
Аудио кодек: AC-3
Видео: MPEG-4 Visual at 1961 Кбит/сек, 720 x 544 (1.324) at 25.000 fps 0.199 bit/pixel
Аудио 1: AC-3 at 192 Кбит/сек, 2 канала(ов), 48,0 КГц - Русский
Аудио 2: AC-3 at 192 Кбит/сек, 2 канала(ов), 48,0 КГц - Английский


01. Африканский дневник / African diary - 1945, реж. Джек Кинни / Jack Kinney
02. Искусство самообороны / The art of self defense - 1941, реж. Джек Кинни / Jack Kinney
03. Наука катания на лыжах / The art of skiing - 1941, реж. Джек Кинни / Jack Kinney
04. Проблемы с багажом / Baggage buster - 1941, реж. Джек Кинни / Jack Kinney
05. Большая стирка / The big wash - 1948, реж. Клайд Джероними / Clyde Geronimi
06. Двойной удар / Double dribble - 1946, реж. Джек Ханна / Jack Hannah
07. Нечестная охота / Foul hunting - 1947, реж. Джек Ханна / Jack Hannah
08. Гуффи и Вилбер / Goofy and Wilbur - 1939, реж. Дик Хюмер / Dick Huemer
09. Самолет Гуффи / Goofy's glider - 1944, реж. Джек Кинни / Jack Kinney
10. Хоккейное убийство / Hockey homicide - 1945, реж. Джек Кинни / Jack Kinney
11. Как стать моряком / How to be a sailor - 1944, реж. Джек Кинни / Jack Kinney
12. Рыболовная наука / How to fish - 1942, реж. Джек Кинни / Jack Kinney
13. Как играть в бейсбол / How to play baseball - 1942, реж. Джек Кинни / Jack Kinney

Код:
Общее
Полное имя                               : \\Keenetic_giga\disk_a1\transmission\Торро\multiki\Золотая Коллекция Мультиков\Vipusk.37\Vipusk.37\01. Африканский дневник African diary - 1945 (Sheikn).avi
Формат                                   : AVI
Формат/Информация                        : Audio Video Interleave
Размер файла                             : 120 Мбайт
Продолжительность                        : 7 м. 7 с.
Общий поток                              : 2361 Кбит/сек
Видео
Идентификатор                            : 0
Формат                                   : MPEG-4 Visual
Профиль формата                          : [email protected]
Параметр BVOP формата                    : Нет
Параметр QPel формата                    : Нет
Параметр GMC формата                     : Без точки перехода
Параметр матрицы формата                 : Default (H.263)
Идентификатор кодека                     : XVID
Идентификатор кодека/Подсказка           : XviD
Продолжительность                        : 7 м. 7 с.
Продолжительность оригинала              : 7 м. 7 с.
Битрейт                                  : 1961 Кбит/сек
Ширина                                   : 720 пикселей
Высота                                   : 544 пикселя
Соотношение сторон                       : 4:3
Частота кадров                           : 25,000 кадров/сек
Цветовое пространство                    : YUV
Субдискретизация насыщенности            : 4:2:0
Битовая глубина                          : 8 бит
Тип развёртки                            : Прогрессивная
Метод сжатия                             : С потерями
Бит/(Пиксели*Кадры)                      : 0.200
Размер потока                            : 100 Мбайт (83%)
Библиотека кодирования                   : XviD 1.1.2 (UTC 2006-11-01)
Аудио #1
Идентификатор                            : 1
Формат                                   : AC-3
Формат/Информация                        : Audio Coding 3
Расширение режима                        : CM (complete main)
Параметр Endianness формата              : Big
Идентификатор кодека                     : 2000
Продолжительность                        : 7 м. 7 с.
Вид битрейта                             : Постоянный
Битрейт                                  : 192 Кбит/сек
Каналы                                   : 2 канала
Расположение каналов                     : Front: L R
Частота                                  : 48,0 КГц
Битовая глубина                          : 16 бит
Метод сжатия                             : С потерями
Размер потока                            : 9,78 Мбайт (8%)
Выравнивание                             : Соединение по промежуткам
Продолжительность промежутка             : 32  мс. (0,80 видеокадр)
Аудио #2
Идентификатор                            : 2
Формат                                   : AC-3
Формат/Информация                        : Audio Coding 3
Расширение режима                        : CM (complete main)
Параметр Endianness формата              : Big
Идентификатор кодека                     : 2000
Продолжительность                        : 7 м. 6 с.
Вид битрейта                             : Постоянный
Битрейт                                  : 192 Кбит/сек
Каналы                                   : 2 канала
Расположение каналов                     : Front: L R
Частота                                  : 48,0 КГц
Битовая глубина                          : 16 бит
Метод сжатия                             : С потерями
Размер потока                            : 9,75 Мбайт (8%)
Выравнивание                             : Соединение по промежуткам
Продолжительность промежутка             : 32  мс. (0,80 видеокадр)
-"Золотая коллекция мультиков / Gold Cartoons"
на треке Pirat.ca
-
Download / Скачать

Хотите скачать бесплатно? Зарегистрируйтесь на сайте (ссылка на регистрацию). Pirat.ca - самый быстрый торрент трекер в рунете!

Как скачивать  ·   Что такое торрент  ·   Рейтинг и ограничения



Последний раз редактировалось: kugesan (2013-11-21 07:29), всего редактировалось 1 раз

Пост 21-Июн-2013 18:55 (спустя 1 час 26 минут)

Топик был перенесен из форума Мультфильмы (Трюм) в форум Мультфильмы

Jigsaw
 

CHARLI2236

1089

Пост 21-Ноя-2013 10:57 (спустя 4 месяца 29 дней)

[Q] 

подключусь AntiZip 7

_________________
[Профиль]  [ЛС] 
Показать сообщения:    
Ответить на тему

Текущее время: Сегодня 06:23

Часовой пояс: GMT + 4



Вы не можете начинать темы
Вы не можете отвечать на сообщения
Вы не можете редактировать свои сообщения
Вы не можете удалять свои сообщения
Вы не можете голосовать в опросах
Вы не можете прикреплять файлы к сообщениям
Вы не можете скачивать файлы

▼ Вниз