ML
     
  Уважаемый Гость!
Вы можете поддержать проект и зарегистрироваться у наших партнеров - онлайн-стратегия MyLands. При регистрации в игре Вы получите код, который сможете активировать после регистрации на pirat.ca и получить 1000 дублонов.

Ваш код:
e6008d9811a0b6a1393c3dc51ecd7bc35637bc21
 
     

Золотая коллекция мультиков. Выпуск 38 / Gold Cartoons (Чак Джонс / Chuck Jones) [1942-1951, анимация, DVDRip] MVO + Original (Eng)

Ответить на тему
 
Автор
Сообщение

Пост 21-Июн-2013 17:38

[Q] 

kugesan

Золотая коллекция мультиковGold Cartoons Выпуск 38
Год выпуска: 1942-1951
Страна: США
Жанр: анимация
Продолжительность: 01:59:30
Кол-во серий: 17
Перевод: Профессиональный (многоголосый)
Оригинальный аудиопоток: английский
Субтитры: нет

Режиссер: Чак Джонс / Chuck Jones
Описание: Сборник мультфильмов от студии Warner Bros

Качество: DVDRip
Видео кодек: XviD
Аудио кодек: AC-3
Видео: MPEG-4 Visual at 1971 Кбит/сек, 720 x 544 (1.324) at 25.000 fps 0.199 bit/pixel
Аудио 1: AC-3 at 192 Кбит/сек, 2 канала(ов), 48,0 КГц - Русский
Аудио 2: AC-3 at 192 Кбит/сек, 2 канала(ов), 48,0 КГц - Английский


01. Как играть в футбол / How To Play Football - 1944
02. Как играть в гольф / How To Playn Golf - 1944
03. Умение плавать / How To Swim - 1942
04. Рыцарь на один день / A Knight For A Day - 1944
05. Олимпийские чемпионы / The Olympic Champ - 1942
06. Скачки / They're Off - 1948
07. Проблемы с тигром / Tiger Trouble - 1945
08. Тенисная ракетка / Tennis Racquet - 1949
09. Гуфи спортсмен / Goofy Gymnastics - 1949
10. Страсть к автомобилям / Motor Mania - 1950
11. Замрите / Hold That Pose - 1950
12. Львы спят внизу / Lion Down - 1951
13. В гостях хорошо, а дома лучше / Home Made Home - 1951
14. Холодная война / Cold war - 1951
15. Завтра садимся на диету / Tomorrow We Diet - 1951
16. Легкие деньги / Get Rich Quick - 1951
17. Отцы тоже люди / Fathers Are People - 1951

Код:
Общее
Полное имя                               : \\Keenetic_giga\disk_a1\transmission\Торро\multiki\Золотая Коллекция Мультиков\Vipusk.38\Vipusk.38\01. Как играть в футбол How To Play Football - 1944 (Sheikn).avi
Формат                                   : AVI
Формат/Информация                        : Audio Video Interleave
Размер файла                             : 130 Мбайт
Продолжительность                        : 7 м. 41 с.
Общий поток                              : 2370 Кбит/сек
Видео
Идентификатор                            : 0
Формат                                   : MPEG-4 Visual
Профиль формата                          : [email protected]
Параметр BVOP формата                    : Нет
Параметр QPel формата                    : Нет
Параметр GMC формата                     : Без точки перехода
Параметр матрицы формата                 : Default (H.263)
Идентификатор кодека                     : XVID
Идентификатор кодека/Подсказка           : XviD
Продолжительность                        : 7 м. 41 с.
Продолжительность оригинала              : 7 м. 41 с.
Битрейт                                  : 1971 Кбит/сек
Ширина                                   : 720 пикселей
Высота                                   : 544 пикселя
Соотношение сторон                       : 4:3
Частота кадров                           : 25,000 кадров/сек
Цветовое пространство                    : YUV
Субдискретизация насыщенности            : 4:2:0
Битовая глубина                          : 8 бит
Тип развёртки                            : Прогрессивная
Метод сжатия                             : С потерями
Бит/(Пиксели*Кадры)                      : 0.201
Размер потока                            : 108 Мбайт (83%)
Библиотека кодирования                   : XviD 1.1.2 (UTC 2006-11-01)
Аудио #1
Идентификатор                            : 1
Формат                                   : AC-3
Формат/Информация                        : Audio Coding 3
Расширение режима                        : CM (complete main)
Параметр Endianness формата              : Big
Идентификатор кодека                     : 2000
Продолжительность                        : 7 м. 39 с.
Вид битрейта                             : Постоянный
Битрейт                                  : 192 Кбит/сек
Каналы                                   : 2 канала
Расположение каналов                     : Front: L R
Частота                                  : 48,0 КГц
Битовая глубина                          : 16 бит
Метод сжатия                             : С потерями
Размер потока                            : 10,5 Мбайт (8%)
Выравнивание                             : Соединение по промежуткам
Продолжительность промежутка             : 32  мс. (0,80 видеокадр)
Аудио #2
Идентификатор                            : 2
Формат                                   : AC-3
Формат/Информация                        : Audio Coding 3
Расширение режима                        : CM (complete main)
Параметр Endianness формата              : Big
Идентификатор кодека                     : 2000
Продолжительность                        : 7 м. 39 с.
Вид битрейта                             : Постоянный
Битрейт                                  : 192 Кбит/сек
Каналы                                   : 2 канала
Расположение каналов                     : Front: L R
Частота                                  : 48,0 КГц
Битовая глубина                          : 16 бит
Метод сжатия                             : С потерями
Размер потока                            : 10,5 Мбайт (8%)
Выравнивание                             : Соединение по промежуткам
Продолжительность промежутка             : 32  мс. (0,80 видеокадр)
-"Золотая коллекция мультиков / Gold Cartoons"
на треке Pirat.ca
-
Download / Скачать

Хотите скачать бесплатно? Зарегистрируйтесь на сайте (ссылка на регистрацию). Pirat.ca - самый быстрый торрент трекер в рунете!

Как скачивать  ·   Что такое торрент  ·   Рейтинг и ограничения



Последний раз редактировалось: kugesan (2013-11-21 07:29), всего редактировалось 1 раз

Пост 21-Июн-2013 18:55 (спустя 1 час 16 минут)

Топик был перенесен из форума Мультфильмы (Трюм) в форум Мультфильмы

Jigsaw
 

CHARLI2236

1097

Пост 21-Ноя-2013 10:56 (спустя 4 месяца 29 дней)

[Q] 

подключусь AntiZip 6

_________________
[Профиль]  [ЛС] 
Показать сообщения:    
Ответить на тему

Текущее время: Сегодня 02:02

Часовой пояс: GMT + 4



Вы не можете начинать темы
Вы не можете отвечать на сообщения
Вы не можете редактировать свои сообщения
Вы не можете удалять свои сообщения
Вы не можете голосовать в опросах
Вы не можете прикреплять файлы к сообщениям
Вы не можете скачивать файлы

▼ Вниз