ML
     
  Уважаемый Гость!
Вы можете поддержать проект и зарегистрироваться у наших партнеров - онлайн-стратегия MyLands. При регистрации в игре Вы получите код, который сможете активировать после регистрации на pirat.ca и получить 1000 дублонов.

Ваш код:
193c38d0130f05c24de871678ea3ac181461757d
 
     

9.99 долларов / $9.99 (Татья Розенталь / Tatia Rosenthal) [2008 г.] (драма, приключение, семейный) [DVDRip] MVO + sub

Ответить на тему
 
Автор
Сообщение

Пост 29-Июн-2012 23:10

[Q] 

genkasper

9.99 долларов / $9.99- Год выпуска: 2008
Мировая премьера: 4 сентября 2008
Российская премьера: 13 августа 2009, «Русский репортаж»
Дата выхода DVD: 30 сентября 2010, «CP-Digital»
Производство: Израиль, Австрия
Жанр: драма, приключение, семейный
Продолжительность: 01.18.01
Перевод: профессиональный (многоголосый, закадровый)
Оригинальный аудиопоток: Английский
Субтитры: есть
Режиссер: Татья Розенталь / Tatia Rosenthal
В ролях: Йозеф Бер, Рой Биллинг, Том Бадж, Джоэл Эдгертон, Дэвид Филд, Леон Форд, Сэмюэл Джонсон, Клаудия Карван, Jamie Katsamatsas, Энтони ЛаПалья
Описание: «Вы когда-нибудь задавались вопросом, в чем смысл жизни? Теперь вы можете получить ответы на все волнующие вас вопросы, заказав красочный буклет всего лишь за $9,99». Это объявление меняет жизнь безработного Дэйва Пека, проживающего с отцом и братом в многоквартирном доме. Стремясь поделиться своим открытием с миром, Дэйв знакомится с другими обитателями дома, людьми разными и интересными: со стариком, приютившим ангела-мизантропа, красавицей-моделью с неординарными сексуальными предпочтениями, крепко пьющим парнем, живущим с тремя отвязными пятисантиметровыми подростками, и маленьким мальчиком, подружившимся со свиньей-копилкой. У них нет буклетов, но у каждого есть свой ответ на самый главный вопрос.
сценарий Этгар Керетт, Татья Розенталь
продюсер Амир Хэрел, Эмиль Шерман, Михель Аксфорд, ...
оператор Ричард Брэдшоу, Джеймс Льюис, Сьюзэн Ститт
композитор Кристофер Бауэн
художник Мелинда Доринг, Кэролайн Шерман

Источник/Качество: DVDRip
Формат: AVI
Видео кодек: XviD
Аудио кодек: AC3
Видео: 704x384 (1.83:1), 23.976 fps, XviD build 50 ~2015 kbps avg, 0.31 bit/pixel
Аудио: русский 48 kHz, AC3 Dolby Digital, 2/0 (L,R) ch, ~192.00 kbps avg
Аудио #2: английский 48 kHz, AC3 Dolby Digital, 3/2 (L,C,R,l,r) + LFE ch, ~448.00 kbps avg
Субтитры: Русские, английские (отдельно)
General
Format : AVI
Format/Info : Audio Video Interleave
File size : 1.46 GiB
Duration : 1h 18mn
Overall bit rate : 2 670 Kbps
Director : zim2001
Writing application : VirtualDubMod 1.5.10.2 (build 2540/release)
Copyright : За это можно получить бан
Video #0
ID : 0
Format : MPEG-4 Visual
Format profile : [email protected]
Format settings, BVOP : Yes
Format settings, QPel : No
Format settings, GMC : No warppoints
Format settings, Matrix : Custom
Codec ID : XVID
Codec ID/Hint : XviD
Duration : 1h 18mn
Bit rate : 2 016 Kbps
Width : 704 pixels
Height : 384 pixels
Display aspect ratio : 16:9
Frame rate : 23.976 fps
Resolution : 24 bits
Colorimetry : 4:2:0
Scan type : Progressive
Bits/(Pixel*Frame) : 0.311
Stream size : 1.10 GiB (75%)
Writing library : XviD 1.2.1 (UTC 2008-12-04)
Audio #1
ID : 1
Format : AC-3
Format/Info : Audio Coding 3
Codec ID : 2000
Duration : 1h 18mn
Bit rate mode : Constant
Bit rate : 192 Kbps
Channel(s) : 2 channels
Channel positions : L R
Sampling rate : 48.0 KHz
Video delay : 24ms
Stream size : 108 MiB (7%)
Alignment : Split accross interleaves
Interleave, duration : 42 ms (1.00 video frame)
Interleave, preload duration : 500 ms
Audio #2
ID : 2
Format : AC-3
Format/Info : Audio Coding 3
Codec ID : 2000
Duration : 1h 18mn
Bit rate mode : Constant
Bit rate : 448 Kbps
Channel(s) : 6 channels
Channel positions : Front: L C R, Surround: L R, LFE
Sampling rate : 48.0 KHz
Stream size : 251 MiB (17%)
Alignment : Split accross interleaves
Interleave, duration : 42 ms (1.00 video frame)
Interleave, preload duration : 500 ms
Download / Скачать

Хотите скачать бесплатно? Зарегистрируйтесь на сайте (ссылка на регистрацию). Pirat.ca - самый быстрый торрент трекер в рунете!

Как скачивать  ·   Что такое торрент  ·   Рейтинг и ограничения

Пост 29-Июн-2012 23:25 (спустя 14 минут)

Топик был перенесен из форума Мультипликация в форум Зарубежные полнометражные мультфильмы

zyyx
 

sedun

Шкипер

Пост 30-Июн-2012 18:11 (спустя 19 часов)

[Q] 

Уматовый мульт! Рекомендую! Чувак с постера особенно доставил :)
[Профиль]  [ЛС] 

CHARLI2236

1092

Пост 02-Мар-2014 22:39 (спустя 1 год 8 месяцев)

[Q] 

подключаюсь AntiZip 6

_________________
[Профиль]  [ЛС] 
Показать сообщения:    
Ответить на тему

Текущее время: Сегодня 18:08

Часовой пояс: GMT + 4



Вы не можете начинать темы
Вы не можете отвечать на сообщения
Вы не можете редактировать свои сообщения
Вы не можете удалять свои сообщения
Вы не можете голосовать в опросах
Вы не можете прикреплять файлы к сообщениям
Вы не можете скачивать файлы

▼ Вниз