ML
     
  Уважаемый Гость!
Вы можете поддержать проект и зарегистрироваться у наших партнеров - онлайн-стратегия MyLands. При регистрации в игре Вы получите код, который сможете активировать после регистрации на pirat.ca и получить 1000 дублонов.

Ваш код:
47bfc18b89c74e4ae0d974e9b6943639e2bff08e
 
     

Спирит: Душа прерий / Spirit: Stallion of the Cimarron (Келли Эсбёри / Kelly Asbury, Лорна Кук / Lorna Cook) [2002 г., мультфильм, мелодрама, приключения, семейный, вестерн, DVDRip] Dub + MVO

Ответить на тему
 
Автор
Сообщение

Пост 14-Июл-2012 23:06

[Q] 

multimir765

Морской Волк

Спирит: Душа прерий / Spirit: Stallion of the Cimarron Производство: США
Режиссер: Келли Эсбёри / Kelly Asbury, Лорна Кук / Lorna Cook
Жанр: мультфильм, мелодрама, приключения, семейный, вестерн
Год выпуска: 2002 г.
Продолжительность: 01:20:01-Перевод: Профессиональный (полное дублирование)
Перевод 2: Профессиональный (многоголосый, закадровый)
Cубтитры: отсутствуют
Роли озвучивали: Мэтт Дэймон (Spirit, озвучка), Джеймс Кромуэлл (The Colonel, озвучка), Дэниэл Студи (Little Creek, озвучка), Чоппер Бернет (Sgt. Adams, озвучка), Джеф ЛеБо (Murphy / Railroad Foreman, озвучка), Джон Рубано (Soldier, озвучка), Ричард МакГонагл (Bill, озвучка), Мэтт Левин (Joe, озвучка), Адам Пол (Pete, озвучка), Роберт Кайт (Jake, озвучка), Чарльз Нэпьер (Roy, озвучка), Мередит Уэллс (Little Indian Girl, озвучка)-Описание: Дикий, свободный, непокорный, летящий наперегонки с ветром к солнцу.. Жеребец, мустанг Спирит попадает в руки к людям, которые хотят сделать из него военную лошадь и уничтожить его родной край, проложив через него железную дорогу. С помощью друзей - индейца Лакоты и обретенной любви, кобыле по имени Гроза, Спирит возвращается домой... и путь его будет не прост.-Сэмпл: http://multi-up.com/732815
Качество видео: DVDRip
Формат видео: AVI
Видео кодек: XviD
Аудио кодек: AC3
Видео: 720x304 (2.35:1); 25 fps; XviD; 1784 Kbps; 0,326 bit/pixel
Аудио: 48 kHz; AC3; 6 ch; Front: L C R, Side: L R, LFE; 448 Kbps; CBR - DUB
Аудио #2: 48 kHz; AC3; 6 ch; Front: L C R, Side: L R, LFE; 384 Kbps; CBR - MVO
Полное имя : D:\Фильмы\Мультфильмы\Спирит Душа прерий\Spirit. Stallion of the Cimarron [2002]\Spirit. Stallion of the Cimarron [2002].avi
Формат : AVI
Формат/Информация : Audio Video Interleave
Размер файла : 1,47 Гбайт
Продолжительность : 1 ч. 20 м.
Общий поток : 2631 Кбит/сек
Программа кодирования : VirtualDubMod 1.5.10.3 | www.virtualdub-fr.org || (build 2550/release)
Библиотека кодирования : VirtualDubMod build 2550/release
Видео
Идентификатор : 0
Формат : MPEG-4 Visual
Профиль формата : Advanced [email protected]
Параметр BVOP формата : 1
Параметр QPel формата : Нет
Параметр GMC формата : Без точки перехода
Параметр матрицы формата : Выборочная
Идентификатор кодека : XVID
Идентификатор кодека/Подсказка : XviD
Продолжительность : 1 ч. 20 м.
Битрейт : 1785 Кбит/сек
Ширина : 720 пикселей
Высота : 304 пикселя
Соотношение сторон : 2,35:1
Частота кадров : 25,000 кадров/сек
Цветовое пространство : YUV
Субдискретизация насыщенности : 4:2:0
Битовая глубина : 8 бит
Тип развёртки : Прогрессивная
Метод сжатия : С потерями
Бит/(Пиксели*Кадры) : 0.326
Размер потока : 1022 Мбайт (68%)
Библиотека кодирования : XviD 1.2.1 (UTC 2008-12-04)
Аудио #1
Идентификатор : 1
Формат : AC-3
Формат/Информация : Audio Coding 3
Расширение режима : CM (complete main)
Параметр Endianness формата : Big
Идентификатор кодека : 2000
Продолжительность : 1 ч. 20 м.
Вид битрейта : Постоянный
Битрейт : 448 Кбит/сек
Каналы : 6 каналов
Расположение каналов : Front: L C R, Side: L R, LFE
Частота : 48,0 КГц
Битовая глубина : 16 бит
Метод сжатия : С потерями
Размер потока : 256 Мбайт (17%)
Выравнивание : Разделение по промежуткам
Продолжительность промежутка : 40 мс. (1,00 видеокадр)
Время предзагрузки промежутка : 500 мс.
Аудио #2
Идентификатор : 2
Формат : AC-3
Формат/Информация : Audio Coding 3
Расширение режима : CM (complete main)
Параметр Endianness формата : Big
Идентификатор кодека : 2000
Продолжительность : 1 ч. 20 м.
Вид битрейта : Постоянный
Битрейт : 384 Кбит/сек
Каналы : 6 каналов
Расположение каналов : Front: L C R, Side: L R, LFE
Частота : 48,0 КГц
Битовая глубина : 16 бит
Метод сжатия : С потерями
Размер потока : 220 Мбайт (15%)
Выравнивание : Разделение по промежуткам
Продолжительность промежутка : 40 мс. (1,00 видеокадр)
Время предзагрузки промежутка : 500 мс.
Download / Скачать

Хотите скачать бесплатно? Зарегистрируйтесь на сайте (ссылка на регистрацию). Pirat.ca - самый быстрый торрент трекер в рунете!

Как скачивать  ·   Что такое торрент  ·   Рейтинг и ограничения

Пост 15-Июл-2012 00:12 (спустя 1 час 5 минут)

Топик был перенесен из форума Мультипликация в форум Зарубежные полнометражные мультфильмы

erchine
 

arslanannaev

Морской Волк

Пост 15-Июл-2012 02:05 (спустя 2 часа 59 минут)

[Q] 


_________________
[Профиль]  [ЛС] 

black kat

Лоцман

Пост 08-Июл-2013 14:06 (спустя 11 месяцев 24 дня)

[Q] 

СПАСИБО!!!!!!!!!!!!!!
[Профиль]  [ЛС] 
Показать сообщения:    
Ответить на тему

Текущее время: Сегодня 07:02

Часовой пояс: GMT + 4



Вы не можете начинать темы
Вы не можете отвечать на сообщения
Вы не можете редактировать свои сообщения
Вы не можете удалять свои сообщения
Вы не можете голосовать в опросах
Вы не можете прикреплять файлы к сообщениям
Вы не можете скачивать файлы

▼ Вниз