ML
     
  Уважаемый Гость!
Вы можете поддержать проект и зарегистрироваться у наших партнеров - онлайн-стратегия MyLands. При регистрации в игре Вы получите код, который сможете активировать после регистрации на pirat.ca и получить 1000 дублонов.

Ваш код:
fcd618d94adc1456bccbde5047c9cd0930e4ae4d
 
     

Звездный десант: Вторжение / Starship Troopers: Invasion (Синдзи Арамаки / Shinji Aramaki) [2012 г., Мультфильм, Фантастика, Боевик, HDRip] MVO (лицензия)

Страницы :  1, 2  След.

Ответить на тему
 
Автор
Сообщение

Пост 21-Авг-2012 23:27

[Q] 

kiryandr

Легенда

-Звездный десант: Вторжение / Starship Troopers: Invasion-- Производство: США, Япония
Режиссер: Синдзи Арамаки / Shinji Aramaki
Жанр: Мультфильм, Фантастика, Боевик
Год выпуска: 2012 г.
Продолжительность: 01:28:13
Мировая премьера: 21 июля 2012
Перевод: Профессиональный (многоголосый, закадровый) (лицензия)
Роли озвучивали:
Гретчен Лодж, Джонни Льюис, Александра Холден, Филд Бловелт, Кен Арнольд, Тони Эллис, Лоурен Лакис, Кэти Фостер, Дэниэл Росс, Тодд Райан Джонс...-Описание:
После того, как был покинут отдаленный форпост Федерации, Форт Кейси, Карл Дженкинс отправляется на разведку и исчезает в туманности. Закаленные во множественных боях солдаты могут своими действиями принести на Землю смерть человечества, а могут и наоборот его спасти. Третьего не дано.-Сэмпл IMDB КиноПоиск
Качество видео: HDRip
Формат видео: AVI
Видео кодек: XviD
Аудио кодек: AC3
Видео: 720 x 400, 1820 Кбит/сек, 23,976 кадр/сек, 0.264 бит/пикс
Аудио: AC3 5.1, 448 Кбит/сек, 48,0 КГц
Cубтитры: отсутствуют
Общее
Полное имя : Звездный десант Вторжение.2012.HDRip.avi
Формат : AVI
Формат/Информация : Audio Video Interleave
Размер файла : 1,41 Гбайт
Продолжительность : 1 ч. 28 м.
Общий поток : 2277 Кбит/сек
Программа кодирования : VirtualDubMod 1.5.10.2 (build 2540/release)
Библиотека кодирования : VirtualDubMod build 2540/release
Видео
Идентификатор : 0
Формат : MPEG-4 Visual
Профиль формата : Advanced [email protected]
Параметр BVOP формата : 2
Параметр QPel формата : Нет
Параметр GMC формата : Без точки перехода
Параметр матрицы формата : Default (H.263)
Идентификатор кодека : XVID
Идентификатор кодека/Подсказка : XviD
Продолжительность : 1 ч. 28 м.
Битрейт : 1820 Кбит/сек
Ширина : 720 пикс.
Высота : 400 пикс.
Соотношение сторон : 16:9
Частота кадров : 23,976 кадр/сек
Цветовое пространство : YUV
Подвыборка цветности : 4:2:0
Битовая глубина : 8 бит
Тип развёртки : Прогрессивная
Метод сжатия : С потерями
Бит/(Пиксели*Кадры) : 0.264
Размер потока : 1,13 Гбайт (80%)
Библиотека кодирования : XviD 1.2.1 (UTC 2008-12-04)
Аудио
Идентификатор : 1
Формат : AC-3
Формат/Информация : Audio Coding 3
Расширение режима : CM (complete main)
Идентификатор кодека : 2000
Продолжительность : 1 ч. 28 м.
Вид битрейта : Постоянный
Битрейт : 448 Кбит/сек
Каналы : 6 каналов
Расположение каналов : Front: L C R, Side: L R, LFE
Частота : 48,0 КГц
Битовая глубина : 16 бит
Метод сжатия : С потерями
Размер потока : 285 Мбайт (20%)
Выравнивание : Разделение по промежуткам
Продолжительность промежутка : 42 мс. (1,00 видеокадр)
Время предзагрузки промежутка : 500 ms
Download / Скачать

Хотите скачать бесплатно? Зарегистрируйтесь на сайте (ссылка на регистрацию). Pirat.ca - самый быстрый торрент трекер в рунете!

Как скачивать  ·   Что такое торрент  ·   Рейтинг и ограничения



Последний раз редактировалось: kiryandr (2012-08-22 00:42), всего редактировалось 1 раз

Пост 22-Авг-2012 00:46 (спустя 1 час 19 минут)

Топик был перенесен из форума Мультфильмы (Трюм) в форум Новинки (HD|DVD|BD|TV|SAT|PDTV| - Rips)

erchine
 

SerJ-AC

Морской Волк

Пост 22-Авг-2012 01:59 (спустя 2 часа 32 минуты)

[Q] 

посмотрим
[Профиль]  [ЛС] 

got70

Легенда

752

Пост 22-Авг-2012 07:28 (спустя 5 часов)

[Q] 


_________________
Добро непременно победит зло!Непременно...Затем поставит на колени,и зверски УБЬЁТ!
[Профиль]  [ЛС] 

$МАКС$

Штурман

Пост 22-Авг-2012 07:55 (спустя 26 минут)

[Q] 

[Профиль]  [ЛС] 

saggi

Шкипер

Пост 22-Авг-2012 11:53 (спустя 3 часа)

[Q] 

прикольный мульт!!!!
[Профиль]  [ЛС] 

Дон Кихот

Корсар

Пост 22-Авг-2012 14:53 (спустя 3 часа)

[Q] 

[Профиль]  [ЛС] 

Дон Кихот

Корсар

Пост 22-Авг-2012 14:55 (спустя 1 минута)

[Q] 

прикольный мульт!!!!
если так то надо глянуть
[Профиль]  [ЛС] 

gamm1beer

Морской Волк

Пост 22-Авг-2012 14:55 (спустя 15 секунд)

[Q] 

Такого не смотрел. Но тема занятная!!!

_________________
[Профиль]  [ЛС] 

Billi Bob

Корсар

558

Пост 22-Авг-2012 16:58 (спустя 2 часа 2 минуты)

[Q] 

На конец то озвучили !!!!!!
[Профиль]  [ЛС] 

deFRAGmentator

Морской Волк

Пост 22-Авг-2012 18:58 (спустя 2 часа)

[Q] 

[Профиль]  [ЛС] 

vasi

Корсар

Пост 22-Авг-2012 21:35 (спустя 2 часа 36 минут)

[Q] 

[Профиль]  [ЛС] 

sergey-309

Морской Волк

Пост 22-Авг-2012 22:37 (спустя 1 час 2 минуты)

[Q] 

[Профиль]  [ЛС] 

DeerZilla

Морской Волк

Пост 22-Авг-2012 23:55 (спустя 1 час 17 минут)

[Q] 

[Профиль]  [ЛС] 

buba-79

Флибустьер

Пост 23-Авг-2012 00:07 (спустя 11 минут)

[Q] 

все качает
[Профиль]  [ЛС] 

Дон Кихот

Корсар

Пост 23-Авг-2012 09:16 (спустя 9 часов)

[Q] 

Не досмотрел до конца.
[Профиль]  [ЛС] 

alexey3312

Флибустьер

398

Пост 23-Авг-2012 12:06 (спустя 2 часа 50 минут)

[Q] 

Спасибо! А это не те орлы, что "Последняя фантазия. Дух внутри" снимали? Киньчик (мульт) был офигенный, да же для нашего времени...

_________________
Металлисты - это самый развитой и передовой класс, и никто не может отрицать, что это и есть передовой отряд всего пролетариата. В.И. Ленин
[Профиль]  [ЛС] 

Smail

Корсар

5969

Пост 23-Авг-2012 15:24 (спустя 3 часа)

[Q] 


_________________
[Профиль]  [ЛС] 

Cap Flint

Морской Волк

194

Пост 23-Авг-2012 18:23 (спустя 2 часа 58 минут)

[Q] 


_________________
[Профиль]  [ЛС] 

Aleks44

Гроза морей

Пост 24-Авг-2012 01:42 (спустя 7 часов)

[Q] 

Мульт классный только нужно отметить что присутствует эротика и ограничить к просмотру возраст детей от 16 или 18 лет, а так все отлично
[Профиль]  [ЛС] 

Муравей

Корсар

Пост 24-Авг-2012 06:26 (спустя 4 часа)

[Q] 

ООО Э Р О Т И К А be ag
[Профиль]  [ЛС] 

Soviet DJ

Корсар

Пост 24-Авг-2012 13:51 (спустя 7 часов)

[Q] 

Вчера не досмотрел - уснул, но затягивает! буду доглядывать!

_________________
Мы - Soviet DJ's, господа!
[Профиль]  [ЛС] 

aleksandrwww

Морской Волк

Пост 24-Авг-2012 14:00 (спустя 8 минут)

[Q] 

Зачет!

_________________
Пират по призванию
http://www.speedtest.net/result/1954155246.png
[Профиль]  [ЛС] 

savatey

Корсар

Пост 25-Авг-2012 03:11 (спустя 13 часов)

[Q] 

Хороший мульт . Спасибо !

_________________
[Профиль]  [ЛС] 

Andrew.1920

Штурман

Пост 25-Авг-2012 14:51 (спустя 11 часов)

[Q] 

Ребят, посоветуйте посмотреть что - нибудь подобного - на космическую тематику) заранее благодарен.
а фильм понравился, спасибо!
[Профиль]  [ЛС] 

badi74

Корсар

Пост 25-Авг-2012 18:53 (спустя 4 часа)

[Q] 

[Профиль]  [ЛС] 

Voland57

Корсар

Пост 26-Авг-2012 17:10 (спустя 22 часа)

[Q] 

[Профиль]  [ЛС] 

gamm1beer

Морской Волк

Пост 28-Авг-2012 19:47 (спустя 2 дня 2 часа)

[Q] 

им бы костюмчики в стили вархамер и была бы серия про битву с тиранидами.
А один гад всё таки смотался. Теперь вырастет очередная матка и начнётса захват земли

_________________
[Профиль]  [ЛС] 

allexxxv

Морской Волк

Пост 28-Авг-2012 20:05 (спустя 18 минут)

[Q] 

[Профиль]  [ЛС] 

Goniba1

Шкипер

Пост 28-Авг-2012 23:13 (спустя 3 часа)

[Q] 

мульт прикольный
[Профиль]  [ЛС] 
Показать сообщения:    
Ответить на тему

Текущее время: Сегодня 12:49

Часовой пояс: GMT + 4



Вы не можете начинать темы
Вы не можете отвечать на сообщения
Вы не можете редактировать свои сообщения
Вы не можете удалять свои сообщения
Вы не можете голосовать в опросах
Вы не можете прикреплять файлы к сообщениям
Вы не можете скачивать файлы

▼ Вниз