ML
     
  Уважаемый Гость!
Вы можете поддержать проект и зарегистрироваться у наших партнеров - онлайн-стратегия MyLands. При регистрации в игре Вы получите код, который сможете активировать после регистрации на pirat.ca и получить 1000 дублонов.

Ваш код:
a978488e62322cd72e113ab723b8a7fdc10eb9b9
 
     

Барби: Чудесное Рождество / Barbie: A Perfect Christmas (Марк Балдо, Терри Классен / Mark Baldo, Terry Klassen) [2011 г., приключения, сказка, семейный, DVDRip] (Dub)

Ответить на тему
 
Автор
Сообщение

Пост 10-Дек-2011 18:04

[Q] 

Sirota

Легенда

Барби: Чудесное Рождество / Barbie: A Perfect Christmas Год выпуска: 2011
Дата выхода DVD: 1 декабря 2011, «Двадцатый Век Фокс СНГ»
Производство: США
Жанр: приключения, сказка, семейный
Продолжительность: 01:10:29
Перевод: профессиональный (полное дублирование) лицензия
Режиссер: Марк Балдо, Терри Классен / Mark Baldo, Terry Klassen
В ролях: Диана Каарина /Diana Kaarina/, Рейчел Харрисон /Rachel Harrison/, Лорен Лавойе /Lauren Lavoie/, Эшлин Драммонд /Ashlyn Drummond/, Марика Хендрикс /Maryke Hendrikse/, Патриция Дрэйк /Patricia Drake/, Чиара Занни /Chiara Zanni/
Описание: Барби и ее сестры отправляются в Нью-Йорк, чтобы отметить Рождество порознь, но их планы рушит снежная буря, и праздник приходится справлять в тесном семейном кругу.
Сэмпл, IMDB, КиноПоиск
Источник/Качество: DVDRip
Формат: AVI
Видео кодек: XviD
Аудио кодек: MP3
Видео: 720x416 (1.73:1), 25 fps, XviD build 64 ~1345 kbps avg, 0.18 bit/pixel
Аудио: 48 kHz, MPEG Layer 3, 2 ch, ~128.00 kbps avg
Субтитры: нет
General
Format : AVI
Format/Info : Audio Video Interleave
File size : 746 MiB
Duration : 1h 10mn
Overall bit rate : 1 480 Kbps
Writing application : VirtualDubMod 1.5.4.1 (build 2178/release)
Writing library : VirtualDubMod build 2178/release
Video #0
ID : 0
Format : MPEG-4 Visual
Format profile : [email protected]
Format settings, BVOP : Yes
Format settings, QPel : No
Format settings, GMC : No warppoints
Format settings, Matrix : Custom
Codec ID : XVID
Codec ID/Hint : XviD
Duration : 1h 10mn
Bit rate : 1 345 Kbps
Width : 720 pixels
Height : 416 pixels
Display aspect ratio : 16:9
Frame rate : 25.000 fps
Resolution : 24 bits
Colorimetry : 4:2:0
Scan type : Progressive
Bits/(Pixel*Frame) : 0.180
Stream size : 678 MiB (91%)
Writing library : XviD 64
Audio #1
ID : 1
Format : MPEG Audio
Format version : Version 1
Format profile : Layer 3
Codec ID : 55
Codec ID/Hint : MP3
Duration : 1h 10mn
Bit rate mode : Constant
Bit rate : 128 Kbps
Channel(s) : 2 channels
Sampling rate : 48.0 KHz
Resolution : 16 bits
Stream size : 64.5 MiB (9%)
Alignment : Aligned on interleaves
Interleave, duration : 80 ms (2.00 video frames)
Interleave, preload duration : 504 ms
Writing library : LAME3.99r
Encoding settings : -m j -V 4 -q 2 -lowpass 17 -b 128
Language : Russian
-
-Релиз подготовлен:

-
-
Download / Скачать

Хотите скачать бесплатно? Зарегистрируйтесь на сайте (ссылка на регистрацию). Pirat.ca - самый быстрый торрент трекер в рунете!

Как скачивать  ·   Что такое торрент  ·   Рейтинг и ограничения

Пост 10-Дек-2011 19:49 (спустя 1 час 45 минут)

Топик был перенесен из форума Мультипликация в форум Новинки (HD|DVD|BD|TV|SAT|PDTV| - Rips)

zyyx
 

fighter

Штурман

Пост 10-Дек-2011 23:09 (спустя 5 часов)

[Q] 

спасибо )
[Профиль]  [ЛС] 

Vlad__treker

Морской Волк

184

Пост 04-Апр-2012 19:26 (спустя 3 месяца 24 дня)

[Q] 


_________________
...:::Pirat.ca:::...
..:::The Best:::...
[Профиль]  [ЛС] 

Анна Каштаева

Шкипер

Пост 21-Май-2012 16:47 (спустя 1 месяц 16 дней)

[Q] 

[Профиль]  [ЛС] 

CHARLI2236

1096

Пост 30-Окт-2012 12:50 (спустя 5 месяцев 8 дней)

[Q] 

спасибо

_________________
[Профиль]  [ЛС] 
Показать сообщения:    
Ответить на тему

Текущее время: Сегодня 22:09

Часовой пояс: GMT + 4



Вы не можете начинать темы
Вы не можете отвечать на сообщения
Вы не можете редактировать свои сообщения
Вы не можете удалять свои сообщения
Вы не можете голосовать в опросах
Вы не можете прикреплять файлы к сообщениям
Вы не можете скачивать файлы

▼ Вниз