ML
     
  Уважаемый Гость!
Вы можете поддержать проект и зарегистрироваться у наших партнеров - онлайн-стратегия MyLands. При регистрации в игре Вы получите код, который сможете активировать после регистрации на pirat.ca и получить 1000 дублонов.

Ваш код:
500cb7bd8d2cec9a8aba647a87ce41c4b76f06bd
 
     

Властелин колец / The Lord of the Rings (Ральф Бакши / Ralph Bakshi) [1978 г., фэнтези, драма, боевик, приключения, DVDRip] (Dub)

Ответить на тему
 
Автор
Сообщение

Пост 10-Дек-2011 18:46

[Q] 

Sirota

Легенда

Властелин колец / The Lord of the Rings Год выпуска: 1978
Мировая премьера: 15 ноября 1978
Производство: США
Жанр: фэнтези, драма, боевик, приключения
Продолжительность: 02:07:45
Перевод: профессиональный (полное дублирование) лицензия
Автор(ы) перевода: Дмитрий Филимонов, Михаил Тихонов, Пётр Иващенко, Дмитрий Курта, Алексей Борзунов
Режиссер: Ральф Бакши / Ralph Bakshi
В ролях: Кристофер Гард
Уильям Скуайр
Майкл Скоулс
Джон Хёрт
Саймон Чэндлер
Доминик Гард
Норман Бёрд
Майкл Грэм Кокс
Энтони Дэниелс
Дэвид Бак
Описание: Сказания Средиземья — это хроника Великой войны за Кольцо, войны, длившейся не одну тысячу лет. Тот, кто владел Кольцом, получал власть над всеми живыми тварями, но был обязан служить злу. Хоббит Фродо призван уничтожить Кольцо. Он отправился за ним в Мордор и на огненную Гору Судьбы вместе с союзниками — эльфами, гномами, людьми и хоббитами.
«Властелин колец» повествует о борьбе добра и зла, сохраняя сказочную атмосферу классики жанра «фэнтези» — трилогии Дж. Р. Р. Толкиена.
Доп. информация: сценарий Крис Конклинг, Питер С. Бигл, Джон Рональд Руэл Толкин
продюсер Сол Заенц
оператор Тимоти Гэлфас
композитор Леонард Розенман, Пол Конт
монтаж Дональд В. Эрнст, Питер Кирби
IMDB, КиноПоиск
Источник/Качество: DVDRip
Формат: AVI
Видео кодек: XviD
Аудио кодек: MP3
Видео: 712x384 (1.85:1), 25 fps, XviD MPEG-4 ~2102 kbps avg, 0.31 bit/pixel
Аудио: 48 kHz, MPEG Layer 3, 2 ch, ~128.00 kbps avg
Субтитры: нет
Золотой глобус, 1979 год
Номинации (1):
Лучший саундтрек
Сатурн, 1979 год
Номинации (1):
Лучший фэнтези-фильм
General
Format : AVI
Format/Info : Audio Video Interleave
Format profile : OpenDML
File size : 2.00 GiB
Duration : 2h 7mn
Overall bit rate : 2 238 Kbps
Writing application : VirtualDubModRus 1.5.10.2 (build 2540/release)
Writing library : VirtualDubMod build 2540/release
Video #0
ID : 0
Format : MPEG-4 Visual
Format profile : [email protected]
Format settings, BVOP : Yes
Format settings, QPel : No
Format settings, GMC : No warppoints
Format settings, Matrix : Default (MPEG)
Muxing mode : Packed bitstream
Codec ID : XVID
Codec ID/Hint : XviD
Duration : 2h 7mn
Bit rate : 2 097 Kbps
Width : 712 pixels
Height : 384 pixels
Display aspect ratio : 1.854
Frame rate : 25.000 fps
Resolution : 24 bits
Colorimetry : 4:2:0
Scan type : Progressive
Bits/(Pixel*Frame) : 0.307
Stream size : 1.87 GiB (94%)
Writing library : XviD 1.2.0.dev47 (UTC 2006-11-01)
Audio #1
ID : 1
Format : MPEG Audio
Format version : Version 1
Format profile : Layer 3
Codec ID : 55
Codec ID/Hint : MP3
Duration : 2h 7mn
Bit rate mode : Constant
Bit rate : 128 Kbps
Channel(s) : 2 channels
Sampling rate : 48.0 KHz
Resolution : 16 bits
Stream size : 117 MiB (6%)
Alignment : Split accross interleaves
Interleave, duration : 40 ms (1.00 video frame)
Interleave, preload duration : 500 ms
Writing library : LAME3.96
-
-Релиз подготовлен:

-
-
Download / Скачать

Хотите скачать бесплатно? Зарегистрируйтесь на сайте (ссылка на регистрацию). Pirat.ca - самый быстрый торрент трекер в рунете!

Как скачивать  ·   Что такое торрент  ·   Рейтинг и ограничения

Пост 10-Дек-2011 18:58 (спустя 12 минут)

Топик был перенесен из форума Мультипликация в форум Зарубежные полнометражные мультфильмы

zyyx
 

CHARLI2236

1094

Пост 30-Окт-2012 12:57 (спустя 10 месяцев 19 дней)

[Q] 

спасибо

_________________
[Профиль]  [ЛС] 

Rainbowen

Шкипер

Пост 28-Ноя-2012 23:14 (спустя 29 дней)

[Q] 

Thx
[Профиль]  [ЛС] 

Grishnackh

Шкипер

Пост 16-Май-2013 23:42 (спустя 5 месяцев 18 дней)

[Q] 

Вспомнил детство) Прям спасибо)
[Профиль]  [ЛС] 

Voldemartop

Легенда

1547

Пост 26-Июн-2013 23:45 (спустя 1 месяц 10 дней)

[Q] 

Благо Дарю!!!

_________________


МОИ РАЗДАЧИ
[Профиль]  [ЛС] 

[email protected]

Морской Волк

Пост 11-Май-2014 21:10 (спустя 10 месяцев 14 дней)

[Q] 

Супер. Мне понравилось

_________________
[Профиль]  [ЛС] 
Показать сообщения:    
Ответить на тему

Текущее время: Сегодня 01:47

Часовой пояс: GMT + 4



Вы не можете начинать темы
Вы не можете отвечать на сообщения
Вы не можете редактировать свои сообщения
Вы не можете удалять свои сообщения
Вы не можете голосовать в опросах
Вы не можете прикреплять файлы к сообщениям
Вы не можете скачивать файлы

▼ Вниз