ML
     
  Уважаемый Гость!
Вы можете поддержать проект и зарегистрироваться у наших партнеров - онлайн-стратегия MyLands. При регистрации в игре Вы получите код, который сможете активировать после регистрации на pirat.ca и получить 1000 дублонов.

Ваш код:
11f49771fdf057c9d51610e4a0925c3b46ddb655
 
     

Альфа и Омега: Клыкастая братва / Alpha and Omega (Энтони Белл / Anthony Bell, Бен Глюк / Ben Gluck) [2010 г., мелодрама, комедия, приключения, семейный, BDRip] (Dub)

Ответить на тему
 
Автор
Сообщение

Пост 10-Дек-2011 19:17

[Q] 

Sirota

Легенда

Альфа и Омега: Клыкастая братва / Alpha and Omega Год выпуска: 2010
Мировая премьера: 16 сентября 2010
Российская премьера: 16 сентября 2010, «Централ Партнершип»
Дата выхода DVD: 28 октября 2010, «Columbia/Sony»
Производство: США, Индия
Жанр: мелодрама, комедия, приключения, семейный
Продолжительность: 01:27:55
Перевод: профессиональный (полное дублирование) лицензия
Автор(ы) перевода: Сергей Лазарев, Валерия Кудрявцева, Игорь Старосельцев, Василий Бочкарев, Александр Клюквин
Режиссер: Энтони Белл / Anthony Bell, Бен Глюк / Ben Gluck
В ролях: Джастин Лонг
Хайден Панеттьери
Деннис Хоппер
Дэнни Гловер
Ларри Миллер
Эрик Прайс
Викки Льюис
Крис Кармак
Кевин Суссман
Брайан Донован
Описание: Омега — волк, далёкий от высших кругов. Он мечтает познакомиться с самой популярной волчицей в стае — Альфой. И вот судьба подбрасывает ему неплохой шанс — работники заповедника отправляют их в Айдахо. Волку и волчице придётся сплотиться, для того, чтобы вернуться на свою родину.
Доп. информация: сценарий Крис Денк, Бен Глюк, Стив Мур
продюсер Кен Кацумото, Стив Мур, Ричард Рич,
композитор Крис П. Бэйкон
монтаж Скотт Андерсон, Джо Кампана
Сэмпл, IMDB, КиноПоиск
Источник/Качество: BDRip (источник - / Blu-ray Disc / 1080p)
Формат: AVI
Видео кодек: XviD
Аудио кодек: AC3
Видео: 720x400 (1.80:1), 23.976 fps, XviD build 57 ~1907 kbps avg, 0.28 bit/pixel
Аудио: 48 kHz, AC3 Dolby Digital, 3/2 (L,C,R,l,r) + LFE ch, ~448.00 kbps avg
Субтитры: нет
General
Format : AVI
Format/Info : Audio Video Interleave
File size : 1.45 GiB
Duration : 1h 27mn
Overall bit rate : 2 364 Kbps
Movie name : Alfa.i.Omega.Klykastaya.bratva.2010.RUS.BDRip.XviD.AC3.
Director : JoKeR (Blu-ray)
Writing application : VirtualDubMod 1.5.10.2 (build 2542/release)
Copyright : HQCLUB (http://hqclub.net/)
Comment : 07.03.2011
Video #0
ID : 0
Format : MPEG-4 Visual
Format profile : [email protected]
Format settings, BVOP : Yes
Format settings, QPel : No
Format settings, GMC : No warppoints
Format settings, Matrix : Custom
Codec ID : XVID
Codec ID/Hint : XviD
Duration : 1h 27mn
Bit rate : 1 907 Kbps
Width : 720 pixels
Height : 400 pixels
Display aspect ratio : 16:9
Frame rate : 23.976 fps
Resolution : 24 bits
Colorimetry : 4:2:0
Scan type : Progressive
Bits/(Pixel*Frame) : 0.276
Stream size : 1.17 GiB (81%)
Writing library : XviD 57
Audio #1
ID : 1
Format : AC-3
Format/Info : Audio Coding 3
Codec ID : 2000
Duration : 1h 27mn
Bit rate mode : Constant
Bit rate : 448 Kbps
Channel(s) : 6 channels
Channel positions : Front: L C R, Surround: L R, LFE
Sampling rate : 48.0 KHz
Stream size : 282 MiB (19%)
Alignment : Split accross interleaves
Interleave, duration : 42 ms (1.00 video frame)
Interleave, preload duration : 500 ms
-
-Релиз подготовлен:

-
-
Download / Скачать

Хотите скачать бесплатно? Зарегистрируйтесь на сайте (ссылка на регистрацию). Pirat.ca - самый быстрый торрент трекер в рунете!

Как скачивать  ·   Что такое торрент  ·   Рейтинг и ограничения

Пост 10-Дек-2011 19:48 (спустя 31 минута)

Топик был перенесен из форума Мультипликация в форум Зарубежные полнометражные мультфильмы

zyyx
 

jktymrf

Лоцман

Пост 30-Авг-2012 20:25 (спустя 8 месяцев 20 дней)

[Q] 

Мульт класс!
[Профиль]  [ЛС] 

anatolijrudnev

Корсар

Пост 04-Окт-2012 17:58 (спустя 1 месяц 4 дня)

[Q] 

[Профиль]  [ЛС] 

CHARLI2236

1097

Пост 30-Окт-2012 12:46 (спустя 25 дней)

[Q] 

благодарю

_________________
[Профиль]  [ЛС] 

aleksejj

Корсар

5324

Пост 05-Июл-2013 11:29 (спустя 8 месяцев 5 дней)

[Q] 

плямяшка в восторге

_________________
[Профиль]  [ЛС] 

black kat

Лоцман

Пост 08-Июл-2013 12:59 (спустя 3 дня)

[Q] 

спасибо!!!!!!!!!!!!!!!!
[Профиль]  [ЛС] 
Показать сообщения:    
Ответить на тему

Текущее время: Сегодня 03:07

Часовой пояс: GMT + 4



Вы не можете начинать темы
Вы не можете отвечать на сообщения
Вы не можете редактировать свои сообщения
Вы не можете удалять свои сообщения
Вы не можете голосовать в опросах
Вы не можете прикреплять файлы к сообщениям
Вы не можете скачивать файлы

▼ Вниз