ML
     
  Уважаемый Гость!
Вы можете поддержать проект и зарегистрироваться у наших партнеров - онлайн-стратегия MyLands. При регистрации в игре Вы получите код, который сможете активировать после регистрации на pirat.ca и получить 1000 дублонов.

Ваш код:
5af7de75d3db09b6a37bc8bab71b0e87ccde73d6
 
     

Легенда о рыцаре / El Cid: La leyenda (Хосе Позо / Jose Pozo) [2003 г., приключения, драма, боевик, семейный, DVDRip] (Dub)

Ответить на тему
 
Автор
Сообщение

Пост 10-Дек-2011 21:25

[Q] 

Sirota

Легенда

Легенда о рыцаре / El Cid: La leyenda Год выпуска: 2003
Мировая премьера: 19 декабря 2003
Российская премьера: 29 апреля 2004, «Централ Партнершип»
Дата выхода DVD: 3 декабря 2009, «CP-Digital»
Производство: Испания
Жанр: приключения, драма, боевик, семейный
Продолжительность: 01:20:12
Перевод: профессиональный (полное дублирование)
Режиссер: Хосе Позо / Jose Pozo
В ролях: Начо Кастньо
Манель Фуэнтес
Санчо Грация
Carlos Latre
Лолес Леон
Мигель Пернас
Наталия Вербеке
Описание: Сын кастильского дворянина Родриго — идеальный кандидат на роль героя. Он смелый, сильный, с хорошим чувством юмора, любимец придворных дам королевского двора. Дружба с наследником престола гарантирует Родриго блестящее будущее.
Только одно обстоятельство омрачает его дни при дворе. Отец возлюбленной Родриго, герцог Гормаз, считает, что его дочь — прекрасная Гимена, достойна лучшего жениха. Родриго оказывается в самом центре придворных интриг, и, неожиданно теряет все: лучшего друга, возлюбленную, честь, и оказывается изгнанным из Кастильи.
Далеко на чужбине его ждут невероятные приключения, грандиозные сражения и героические подвиги. В стремлении вернуть себе родину, честь и возлюбленную, Родриго вновь научится ценить дружбу, уважение и любовь…
Доп. информация: сценарий Хосе Позо
продюсер Хулио Фернандес, Мишель Коннолли, Карлос Фернандес,
композитор Оскар Араужо, Закариас М. Де Ла Рива
художник Adrià García, Виктор Мальдонадо
монтаж Феликс Буено
IMDB, КиноПоиск
Источник/Качество: DVDRip
Формат: AVI
Видео кодек: XviD
Аудио кодек: AC3
Видео: 720x416 (1.73:1), 25 fps, XviD build 63 ~2153 kbps avg, 0.29 bit/pixel
Аудио: 48 kHz, AC3 Dolby Digital, 3/2 (L,C,R,l,r) + LFE ch, ~448.00 kbps avg
Субтитры: нет
Гойя, 2004 год
Победитель (1):
Лучший анимационный фильм
General
Format : AVI
Format/Info : Audio Video Interleave
File size : 1.46 GiB
Duration : 1h 20mn
Overall bit rate : 2 612 Kbps
Writing application : VirtualDubMod 1.5.10.2 (build 2540/release)
Writing library : VirtualDubMod build 2540/release
Video #0
ID : 0
Format : MPEG-4 Visual
Format profile : [email protected]
Format settings, BVOP : Yes
Format settings, QPel : No
Format settings, GMC : No warppoints
Format settings, Matrix : Default (MPEG)
Codec ID : XVID
Codec ID/Hint : XviD
Duration : 1h 20mn
Bit rate : 2 154 Kbps
Width : 720 pixels
Height : 416 pixels
Display aspect ratio : 16:9
Frame rate : 25.000 fps
Resolution : 24 bits
Colorimetry : 4:2:0
Scan type : Progressive
Bits/(Pixel*Frame) : 0.288
Stream size : 1.21 GiB (82%)
Writing library : XviD 63
Audio #1
ID : 1
Format : AC-3
Format/Info : Audio Coding 3
Codec ID : 2000
Duration : 1h 20mn
Bit rate mode : Constant
Bit rate : 448 Kbps
Channel(s) : 6 channels
Channel positions : Front: L C R, Surround: L R, LFE
Sampling rate : 48.0 KHz
Stream size : 257 MiB (17%)
Alignment : Split accross interleaves
Interleave, duration : 40 ms (1.00 video frame)
Interleave, preload duration : 500 ms
-
-Релиз подготовлен:

-
-
Download / Скачать

Хотите скачать бесплатно? Зарегистрируйтесь на сайте (ссылка на регистрацию). Pirat.ca - самый быстрый торрент трекер в рунете!

Как скачивать  ·   Что такое торрент  ·   Рейтинг и ограничения

Пост 10-Дек-2011 21:59 (спустя 33 минуты)

Топик был перенесен из форума Мультипликация в форум Зарубежные полнометражные мультфильмы

zyyx
 

CHARLI2236

1090

Пост 30-Окт-2012 13:14 (спустя 10 месяцев 19 дней)

[Q] 

спс

_________________
[Профиль]  [ЛС] 
Показать сообщения:    
Ответить на тему

Текущее время: Сегодня 14:12

Часовой пояс: GMT + 4



Вы не можете начинать темы
Вы не можете отвечать на сообщения
Вы не можете редактировать свои сообщения
Вы не можете удалять свои сообщения
Вы не можете голосовать в опросах
Вы не можете прикреплять файлы к сообщениям
Вы не можете скачивать файлы

▼ Вниз