ML
     
  Уважаемый Гость!
Вы можете поддержать проект и зарегистрироваться у наших партнеров - онлайн-стратегия MyLands. При регистрации в игре Вы получите код, который сможете активировать после регистрации на pirat.ca и получить 1000 дублонов.

Ваш код:
a01a592a88af5f9996a6d1baec61b18a1769954d
 
     

Союз зверей / Animals United (Райнхард Клоосс, Хольгер Таппе / Reinhard Klooss, Holger Tappe) [2010 г., комедия, приключения, семейный, BDRip] (Dub)

Ответить на тему
 
Автор
Сообщение

Пост 10-Дек-2011 22:38

[Q] 

Sirota

Легенда

Союз зверей / Animals United Год выпуска: 2010
Мировая премьера: 7 октября 2010
Российская премьера: 28 октября 2010, «Люксор», «Каропрокат»
Дата выхода DVD: 25 ноября 2010, «Columbia/Sony»
Производство: Германия
Жанр: комедия, приключения, семейный
Продолжительность: 01:33:13
Перевод: профессиональный (полное дублирование) лицензия
Автор(ы) перевода: Илья Любимов, Тимур Родригез, Иван Жарков, Любовь Германова, Вероника Саркисова
Режиссер: Райнхард Клоосс, Хольгер Таппе / Reinhard Klooss, Holger Tappe
В ролях: Билли Бич
Джим Броудбент
Джеймс Корден
Marc Diraison
Омид Джалили
Джейсон Донован
Доун Френч
Томас Фритш
Стивен Фрай
Майкл Гловер
Описание: Команда веселых зверей нашла зеленый оазис посреди засушливой африканской пустыни, чтобы там поселиться. Но их жизнь оказалась под угрозой — река Окаванго стала быстро пересыхать. Друзья выясняют, что в этом виноваты люди, которые построили дамбу. Звери, — такие разные, — от льва до трусливого суслика, — объединяются в союз, чтобы бросить вызов людям и спасти долину! Смешная ватага разношерстных, винторогих и парнокопытных устроит развеселую жизнь людям и наведет свой «порядок» на дамбе!
Доп. информация: сценарий Оливер Хузли, Райнхард Клоосс, Клаус Рихтер,
продюсер Райнхард Клоосс, Хольгер Таппе, Мартин Московиц,
композитор Дэвид Ньюман
художник Хеннинг Алерс, Дженс Бенеке
монтаж Александр Диттнер
Сэмпл, IMDB, КиноПоиск
Источник/Качество: BDRip
Формат: AVI
Видео кодек: XviD
Аудио кодек: AC3
Видео: 720x304 (2.37:1), 23.976 fps, XviD build 61 ~1779 kbps avg, 0.34 bit/pixel
Аудио: 48 kHz, AC3 Dolby Digital, 3/2 (L,C,R,l,r) + LFE ch, ~448.00 kbps avg
Субтитры: нет
Европейская киноакадемия, 2011 год
Номинации (1):
Приз зрительских симпатий за лучший фильм
C:\РАЗДАЧИ\Союз зверей\Soyuz zverey [pirat.ca].avi
General
Complete name : C:\РАЗДАЧИ\Союз зверей\Soyuz zverey [pirat.ca].avi
Format : AVI
Format/Info : Audio Video Interleave
File size : 1.46 GiB
Duration : 1h 33mn
Overall bit rate : 2 237 Kbps
Writing application : VirtualDubMod 1.5.10.3 (build 2550/release)
Writing library : VirtualDubMod build 2550/release
Video #0
ID : 0
Format : MPEG-4 Visual
Format profile : [email protected]
Format settings, BVOP : Yes
Format settings, QPel : No
Format settings, GMC : No warppoints
Format settings, Matrix : Custom
Codec ID : XVID
Codec ID/Hint : XviD
Duration : 1h 33mn
Bit rate : 1 780 Kbps
Width : 720 pixels
Height : 304 pixels
Display aspect ratio : 2.35:1
Frame rate : 23.976 fps
Resolution : 24 bits
Colorimetry : 4:2:0
Scan type : Progressive
Bits/(Pixel*Frame) : 0.339
Stream size : 1.16 GiB (80%)
Writing library : XviD 61
Audio #1
ID : 1
Format : AC-3
Format/Info : Audio Coding 3
Codec ID : 2000
Duration : 1h 33mn
Bit rate mode : Constant
Bit rate : 448 Kbps
Channel(s) : 6 channels
Channel positions : Front: L C R, Surround: L R, LFE
Sampling rate : 48.0 KHz
Stream size : 299 MiB (20%)
Alignment : Split accross interleaves
Interleave, duration : 42 ms (1.00 video frame)
Interleave, preload duration : 500 ms
-
-Релиз подготовлен:

-
-
Download / Скачать

Хотите скачать бесплатно? Зарегистрируйтесь на сайте (ссылка на регистрацию). Pirat.ca - самый быстрый торрент трекер в рунете!

Как скачивать  ·   Что такое торрент  ·   Рейтинг и ограничения

Пост 10-Дек-2011 23:47 (спустя 1 час 9 минут)

Топик был перенесен из форума Мультипликация в форум Зарубежные полнометражные мультфильмы

Sirota
 

Filimonia

Корсар

Пост 11-Дек-2011 20:26 (спустя 21 час)

[Q] 

Спасибо за мультик!
[Профиль]  [ЛС] 

berezeca

Корсар

Пост 14-Янв-2012 11:48 (спустя 1 месяц 2 дня)

[Q] 

большое спасибо
[Профиль]  [ЛС] 

CHARLI2236

1097

Пост 30-Окт-2012 13:35 (спустя 9 месяцев 16 дней)

[Q] 

спасибо

_________________
[Профиль]  [ЛС] 
Показать сообщения:    
Ответить на тему

Текущее время: Сегодня 09:49

Часовой пояс: GMT + 4



Вы не можете начинать темы
Вы не можете отвечать на сообщения
Вы не можете редактировать свои сообщения
Вы не можете удалять свои сообщения
Вы не можете голосовать в опросах
Вы не можете прикреплять файлы к сообщениям
Вы не можете скачивать файлы

▼ Вниз