ML
     
  Уважаемый Гость!
Вы можете поддержать проект и зарегистрироваться у наших партнеров - онлайн-стратегия MyLands. При регистрации в игре Вы получите код, который сможете активировать после регистрации на pirat.ca и получить 1000 дублонов.

Ваш код:
b70663c760e7cd2521b8e123786cdd788200e3bd
 
     

Золушка: Полный вперед! / Cendrillon au Far West (Паскаль Эрольд / Pascal Hérold) [2012 г., Мультфильм, HDRip] Dub |Лицензия|

Ответить на тему
 
Автор
Сообщение

Пост 06-Сен-2012 14:54

[Q] 

kiryandr

Легенда

-Золушка: Полный вперед! / Cendrillon au Far West-- Производство: Франция
Режиссер: Паскаль Эрольд / Pascal Hérold
Жанр: Мультфильм
Год выпуска: 2012 г.
Продолжительность: 01:21:12
Мировая премьера: 1 июня 2012
Российская премьера: 2 августа 2012, «Каскад»
Перевод: Профессиональный (полное дублирование) |Лицензия|
Роли озвучивали: Валерия Кудрявцева, Тимур Родригез, Мария Аронова-Описание: Представьте себе, что всем известная история Золушки, превращается в анимационную комедию, да еще и снятую в 3D! Вам интересно? А если представить, что Золушка живет в волшебной стране, по которой путешествует русский принц со своей тётей? Еще интереснее? Вас ждут невероятные приключения, похищения и погони, большая дружба, настоящая любовь и… выбитый зуб! И никто, ни злая мачеха со своими дочками, ни разбойники-пираты не смогут помешать Золушке и Принцу обрести свое счастье!-Сэмпл IMDB КиноПоиск
Качество видео: HDRip
Формат видео: AVI
Видео кодек: XviD
Аудио кодек: AC3
Видео: 720x400, 1953 Кбит/сек, 23,976 кадра/сек, 0.283
Аудио: АС3, 6 ch, 448 Кбит/с, 48,0 КГц
Cубтитры: отсутствуют
Общее
Полное имя : Zolushka.Polnyj.vpered.2012.D.HDRip.avi
Формат : AVI
Формат/Информация : Audio Video Interleave
Размер файла : 1,37 Гбайт
Продолжительность : 1 ч. 21 м.
Общий поток : 2410 Кбит/сек
Название фильма : Zolushka.Polnyj.vpered.2012.D.HDRip
Программа кодирования : VirtualDubMod 1.5.10.2 (build 2540/release)
Формат оригинала/Имя : Cartoon
Видео
Идентификатор : 0
Формат : MPEG-4 Visual
Профиль формата : Advanced [email protected]
Параметр BVOP формата : 2
Параметр QPel формата : Нет
Параметр GMC формата : Без точки перехода
Параметр матрицы формата : Выборочная
Идентификатор кодека : XVID
Идентификатор кодека/Подсказка : XviD
Продолжительность : 1 ч. 21 м.
Битрейт : 1953 Кбит/сек
Ширина : 720 пикселей
Высота : 400 пикселей
Соотношение сторон : 16:9
Частота кадров : 23,976 кадра/сек
Цветовое пространство : YUV
Субдискретизация насыщенности : 4:2:0
Битовая глубина : 8 бит
Тип развёртки : Прогрессивная
Метод сжатия : С потерями
Бит/(Пиксели*Кадры) : 0.283
Размер потока : 1,11 Гбайт (81%)
Библиотека кодирования : XviD 1.2.1 (UTC 2008-12-04)
Аудио
Идентификатор : 1
Формат : AC-3
Формат/Информация : Audio Coding 3
Расширение режима : CM (complete main)
Параметр Endianness формата : Big
Идентификатор кодека : 2000
Продолжительность : 1 ч. 21 м.
Вид битрейта : Постоянный
Битрейт : 448 Кбит/сек
Каналы : 6 каналов
Расположение каналов : Front: L C R, Side: L R, LFE
Частота : 48,0 КГц
Битовая глубина : 16 бит
Метод сжатия : С потерями
Размер потока : 260 Мбайт (19%)
Выравнивание : Разделение по промежуткам
Продолжительность промежутка : 42 мс. (1,00 видеокадр)
Время предзагрузки промежутка : 500 мс.
Download / Скачать

Хотите скачать бесплатно? Зарегистрируйтесь на сайте (ссылка на регистрацию). Pirat.ca - самый быстрый торрент трекер в рунете!

Как скачивать  ·   Что такое торрент  ·   Рейтинг и ограничения

Пост 06-Сен-2012 15:22 (спустя 27 минут)

Топик был перенесен из форума Мультфильмы (Трюм) в форум Новинки (HD|DVD|BD|TV|SAT|PDTV| - Rips)

ara1205
 

infiniti-r

Корсар

Пост 06-Сен-2012 16:00 (спустя 1 час 5 минут)

[Q] 

Прикольно, наверное. Посмотрим!
[Профиль]  [ЛС] 

dimonpa

Гроза морей

Пост 06-Сен-2012 16:18 (спустя 17 минут)

[Q] 

[Профиль]  [ЛС] 

antis1962

Корсар

Пост 06-Сен-2012 19:03 (спустя 2 часа 45 минут)

[Q] 

Благодарю!
[Профиль]  [ЛС] 

got70

Легенда

752

Пост 06-Сен-2012 20:45 (спустя 1 час 42 минуты)

[Q] 


_________________
Добро непременно победит зло!Непременно...Затем поставит на колени,и зверски УБЬЁТ!
[Профиль]  [ЛС] 

WWsimf

Флибустьер

Пост 06-Сен-2012 21:23 (спустя 37 минут)

[Q] 

[Профиль]  [ЛС] 

Pilot8035

Штурман

Пост 08-Сен-2012 22:22 (спустя 2 дня)

[Q] 

Графика тормознутая, плохо прорисованная. Движения персонажей неестественные, юморок местами крайне уныл. Детям можно посмотреть, им может понравиться, персонажи ярко и однозначно прописаны, не перепутаешь, где плохой, где хороший.
Мне мульт не понравился, дочкам тоже. Дело вкуса, видимо :)

_________________
Споры в интернете как олимпиада для дебилов: если даже ты выиграешь, ты всё равно дебил.
[Профиль]  [ЛС] 

Walvater

Морской Волк

Пост 09-Сен-2012 17:14 (спустя 18 часов)

[Q] 

[Профиль]  [ЛС] 

Jek@

Легенда

Пост 10-Сен-2012 04:43 (спустя 11 часов)

[Q] 

[Профиль]  [ЛС] 

anonymoys

Гроза морей

901

Пост 10-Сен-2012 06:10 (спустя 1 час 26 минут)

[Q] 

[Профиль]  [ЛС] 

gres8

Штурман

Пост 01-Окт-2012 21:11 (спустя 21 день)

[Q] 

дежавю - в топку
[Профиль]  [ЛС] 

dante456280

Лоцман

Пост 01-Дек-2012 10:36 (спустя 1 месяц 29 дней)

[Q] 

[Профиль]  [ЛС] 

Вут

Морской Волк

72

Пост 30-Май-2013 11:15 (спустя 5 месяцев 29 дней)

[Q] 

[Профиль]  [ЛС] 

darkroot

Шкипер

Пост 17-Апр-2014 22:34 (спустя 10 месяцев 18 дней)

[Q] 

спасибо) оценим Пиратка рулит!

_________________
[Профиль]  [ЛС] 
Показать сообщения:    
Ответить на тему

Текущее время: Сегодня 00:17

Часовой пояс: GMT + 4



Вы не можете начинать темы
Вы не можете отвечать на сообщения
Вы не можете редактировать свои сообщения
Вы не можете удалять свои сообщения
Вы не можете голосовать в опросах
Вы не можете прикреплять файлы к сообщениям
Вы не можете скачивать файлы

▼ Вниз